<?xml version="1.0" standalone="no"?>
<!DOCTYPE svg PUBLIC "-//W3C//DTD SVG 1.1//EN" "http://www.w3.org/Graphics/SVG/1.1/DTD/svg11.dtd" >
<svg>
<metadata>
Created by FontForge 20090914 at Sun Jan 22 09:22:59 2017
 By www-data
Copyright (c) 1992-97 Hewlett-Packard. All rights reserved.
</metadata>
<defs>
<font id="Helvetica-BoldOblique" horiz-adv-x="1139" >
  <font-face 
    font-family="Helvetica"
    font-weight="700"
    font-style="oblique"
    font-stretch="normal"
    units-per-em="2048"
    panose-1="2 11 7 4 2 2 2 9 2 4"
    ascent="1638"
    descent="-410"
    x-height="1088"
    cap-height="1470"
    bbox="-677 -729 2277 1974"
    underline-thickness="102"
    underline-position="-154"
    slope="-12"
    unicode-range="U+0020-U+FB01"
  />
<missing-glyph horiz-adv-x="669" 
d="M0 1274h569v-1274h-569v1274zM100 1174v-1074h369v1074h-369z" />
    <glyph glyph-name=".notdef" horiz-adv-x="669" 
d="M0 1274h569v-1274h-569v1274zM100 1174v-1074h369v1074h-369z" />
    <glyph glyph-name="space" unicode=" " horiz-adv-x="569" 
 />
    <glyph glyph-name="exclam" unicode="!" horiz-adv-x="682" 
d="M351 403l64 705l74 355h157h158l-74 -355l-228 -705h-76v0h-75zM252 289h302l-59 -289h-302z" />
    <glyph glyph-name="quotedbl" unicode="&#x22;" horiz-adv-x="971" 
d="M395 916l115 554h202l-115 -554h-202zM766 916l115 554h202l-115 -554h-202z" />
    <glyph glyph-name="numbersign" unicode="#" 
d="M862 1429l-139 -407h202l140 407h195l-139 -407h194l-64 -189h-195l-82 -240h195l-64 -189h-196l-139 -405h-195l139 405h-203l-139 -405h-195l139 405h-193l64 189h193l82 240h-193l64 189h194l140 407h195zM656 833l-81 -240h205l82 240h-206z" />
    <glyph glyph-name="dollar" unicode="$" 
d="M951 1591l-27 -129.001c124 -8 214.333 -44.667 271 -110c48 -54.667 72 -128.334 72 -221.001c0 -32 -3 -66.667 -9 -104v0h-260v0c12.667 78.667 4.33398 134.334 -24.999 167.001c-19.333 21.333 -51 35.666 -95 42.999l-82 -392
c155.333 -47.333 260 -101.333 314 -162c39.333 -44.667 59.333 -102.334 60 -173.001c0 -30.667 -3.66699 -63 -11 -97c-29.333 -141.333 -97 -251.666 -203 -330.999c-92.667 -70 -206.334 -109.667 -341.001 -119l-42 -200h-105l42 200
c-141.333 8.66699 -243.333 48.334 -306 119.001c-44 52.667 -66.333 122 -67 208c0.666992 46 7 96.667 19 152v0h277v0c-20 -89.333 -15.667 -155.666 13 -198.999c21.333 -32 57.333 -52.333 108 -61l88 423c-146 43.333 -242.333 96.333 -289 159
c-31.333 42 -47.333 97 -48 165c0.666992 34.667 5 72.667 13 114c27.333 131.333 90.333 234.333 189 309c86.667 64.667 190.667 100.667 312 108l27 131h105zM773 1241c-45.333 -4.66699 -84.334 -20.333 -117.001 -47c-39.333 -31.333 -64.666 -75 -75.999 -131
c-12 -56.667 -4.66699 -99.667 22 -129c18 -20.667 50 -39.667 96 -57l76 365zM658.999 183c50.667 6.66699 94.334 24 131.001 52c49.333 37.333 80.666 89.333 93.999 156c11.333 52.667 0.666016 94 -32.001 124c-21.333 19.333 -58.666 39 -111.999 59z" />
    <glyph glyph-name="percent" unicode="%" horiz-adv-x="1821" 
d="M585 709c-88 0 -161 27.333 -219 82s-87 123.667 -87 207c0 10.667 0.833008 23.667 2.5 39s3.83398 29.333 6.50098 42c21.333 104.667 75.833 193.334 163.5 266.001s183.834 109 288.501 109c88 0 160.833 -27.667 218.5 -83s86.5 -125 86.5 -209
c0 -11.333 -0.833008 -24.833 -2.5 -40.5s-3.83398 -29.834 -6.50098 -42.501c-21.333 -103.333 -76 -191 -164 -263c-86.667 -71.333 -182.334 -107 -287.001 -107v0zM697 1247c-47.333 0 -89.332 -15.668 -125.999 -47.001s-60 -71.333 -70 -120
c-1.33301 -6 -2.33301 -12.667 -3 -20s-1 -14 -1 -20c0 -36.667 12.167 -66.5 36.5 -89.5s55.833 -34.5 94.5 -34.5c47.333 0 89.166 15.333 125.499 46s59.5 70 69.5 118c1.33301 6.66699 2.5 13.834 3.5 21.501s1.5 14.5 1.5 20.5c-0.666992 37.333 -13 67.5 -37 90.5
s-55.333 34.5 -94 34.5v0zM424.001 -40.001l1124 1494h154l-1124 -1494h-154zM1390 -11.001c-88 0 -161.168 27.333 -219.501 82s-87.5 123.667 -87.5 207c0 10.667 0.833008 23.667 2.5 39s3.83398 29.333 6.50098 42c21.333 104.667 75.833 193.334 163.5 266.001
s183.834 109 288.501 109c88 0 160.833 -27.667 218.5 -83s86.5 -125 86.5 -209c0 -11.333 -0.833008 -24.833 -2.5 -40.5s-3.83398 -29.834 -6.50098 -42.501c-21.333 -103.333 -76 -191 -164 -263c-86 -71.333 -181.333 -107 -286 -107v0zM1501 526.999
c-47.333 0 -89.332 -15.668 -125.999 -47.001s-60 -71.333 -70 -120c-1.33301 -6 -2.33301 -12.667 -3 -20s-1 -14 -1 -20c0 -36.667 12.167 -66.5 36.5 -89.5s55.833 -34.5 94.5 -34.5c47.333 0 89.166 15.333 125.499 46s59.5 70 69.5 118
c1.33301 6.66699 2.5 13.834 3.5 21.501s1.5 14.5 1.5 20.5c-0.666992 37.333 -13 67.5 -37 90.5s-55.333 34.5 -94 34.5v0z" />
    <glyph glyph-name="ampersand" unicode="&#x26;" horiz-adv-x="1479" 
d="M512 1124c21.333 102.667 74.665 185.332 159.998 247.999s187 94 305 94c109.333 0 190.833 -31.667 244.5 -95s69.834 -146.666 48.501 -249.999c-14 -65.333 -64.667 -139 -152 -221c-54 -52 -111 -94.667 -171 -128l159 -263l35 53
c52.667 83.333 85.667 152.666 99 207.999h249c-20 -82.667 -66.667 -181.334 -140 -296.001c-40 -62.667 -80 -117.334 -120 -164.001l193 -310h-345l-71 112c-59.333 -39.333 -114.666 -70.666 -165.999 -93.999c-85.333 -36.667 -180.333 -55 -285 -55
c-143.333 0 -248.666 41.333 -315.999 124s-86.333 194.334 -57 335.001c20 98 73.667 184 161 258c59.333 49.333 136.666 96.333 231.999 141c0 4 -1.33301 7.33301 -4 10c-28.667 48.667 -48 97.834 -58 147.501s-10.333 98.167 -1 145.5zM643.999 200.998
c49.333 0 102 14 158 42c27.333 14 57 32.333 89 55l-71 115l-135 224c-31.333 -20 -61.333 -41 -90 -63c-75.333 -59.333 -118 -113 -128 -161c-13.333 -65.333 -4 -117 28 -155c31.333 -38 81 -57 149 -57zM776.999 1147c-4 -20 -3.33203 -42.167 2.00098 -66.5
s14.333 -47.5 27 -69.5l44 -73c22 15.333 44.333 32.666 67 51.999c61.333 53.333 95.666 98.333 102.999 135c8.66699 39.333 4.16699 70.5 -13.5 93.5s-45.5 34.5 -83.5 34.5c-32.667 0 -64 -11 -94 -33c-28.667 -21.333 -46 -45.666 -52 -72.999z" />
    <glyph glyph-name="quotesingle" unicode="'" horiz-adv-x="487" 
d="M338 916l115 554h202l-115 -554h-202z" />
    <glyph glyph-name="parenleft" unicode="(" horiz-adv-x="682" 
d="M170 535c34 163.333 95.167 320.498 183.5 471.498s215.166 315.167 380.499 492.5h210c-132 -161.333 -235.5 -317.5 -310.5 -468.5s-131.167 -316.167 -168.5 -495.5c-37.333 -183.333 -50.166 -350.666 -38.499 -501.999s49.5 -305.666 113.5 -462.999h-210
c-90 174.667 -148 337.667 -174 489c-24.667 151.333 -20 310 14 476z" />
    <glyph glyph-name="parenright" unicode=")" horiz-adv-x="682" 
d="M723 534c-34 -163.333 -95.332 -320.665 -183.999 -471.998c-86.667 -150.667 -213 -314.667 -379 -492h-210c132.667 161.333 236.167 317.5 310.5 468.5s130.166 316.167 167.499 495.5c37.333 183.333 50.333 350.666 39 501.999s-49 305.666 -113 462.999h210
c90.667 -174.667 148.667 -337.667 174 -489c24.667 -151.333 19.667 -310 -15 -476z" />
    <glyph glyph-name="asterisk" unicode="*" horiz-adv-x="797" 
d="M790 1467l-62 -243v0l238 87l17 -163l-241 -62v0l109 -188l-154 -101l-86 204v0l-170 -204l-114 101l187 188v0l-215 62l85 163l202 -87v0l38 243h166z" />
    <glyph glyph-name="plus" unicode="+" horiz-adv-x="1196" 
d="M570 404h-402l47 226h402l83 402h226l-83 -402h402l-47 -226h-402l-83 -402h-226z" />
    <glyph glyph-name="comma" unicode="," horiz-adv-x="569" 
d="M164 149l30.999 148.999h155h154l-46 -225c-24.667 -121.333 -68.5 -214.666 -131.5 -279.999s-152.833 -111.333 -269.5 -138v0l22 108v0c72.667 22 127.334 57 164.001 105c24.667 32 45.667 76 63 132v0h-17h-155z" />
    <glyph glyph-name="hyphen" unicode="-" horiz-adv-x="682" 
d="M205 707h574l-55 -266h-574z" />
    <glyph glyph-name="period" unicode="." horiz-adv-x="569" 
d="M192 298h308l-61 -298h-308z" />
    <glyph glyph-name="slash" unicode="/" horiz-adv-x="569" 
d="M961 1511l-797 -1552h-239l797 1552h239z" />
    <glyph glyph-name="zero" unicode="0" 
d="M568 -38c-130.667 0 -228.668 34.832 -294.001 104.499s-98 174.167 -98 313.5c0 43.333 3 89.833 9 139.5s14.667 102.834 26 159.501c54 263.333 135.333 458.333 244 585s249 190 421 190c130.667 0 228.334 -35 293.001 -105s97 -175.333 97 -316
c0.666992 -44 -2.16602 -91.5 -8.49902 -142.5s-15.5 -105.5 -27.5 -163.5c-54.667 -260 -136.334 -452.667 -245.001 -578c-106.667 -124.667 -245.667 -187 -417 -187v0zM613.999 189.999c77.333 0 139.499 40.167 186.499 120.5s91.833 222.5 134.5 426.5
c14 66 24 122.333 30 169s9 90 9 130c0 67.333 -11.333 115.833 -34 145.5s-60 44.5 -112 44.5c-82 0 -145 -38 -189 -114s-88.333 -223 -133 -441c-14 -69.333 -24 -126.833 -30 -172.5s-9 -87.5 -9 -125.5c0 -66 11.333 -113 34 -141s60.334 -42 113.001 -42v0z" />
    <glyph glyph-name="one" unicode="1" 
d="M495 0l208 1008v0h-349l41 199c90 -3.33301 174.333 16.334 253 59.001s145.667 105.334 201 188.001h237v0l-301 -1454v0h-145h-145v0z" />
    <glyph glyph-name="two" unicode="2" 
d="M1264 1091c0 -130 -40.165 -243.001 -120.498 -339.001s-222.5 -201.333 -426.5 -316c-107.333 -60 -189.333 -120.667 -246 -182v0h632l-52 -254h-998v0c26 128.667 79.667 239.334 161 332.001s211.666 192.667 390.999 300c138.667 82 235.167 154 289.5 216
s81.5 131 81.5 207c0 48.667 -14.833 87.167 -44.5 115.5s-70.167 42.5 -121.5 42.5c-68 0 -123.667 -22.5 -167 -67.5s-74.333 -112.5 -93 -202.5v0h-283v0c35.333 160 104.833 285.167 208.5 375.5s229.167 135.5 376.5 135.5c129.333 0 230.666 -32 303.999 -96
c72.667 -64 108.667 -153 108 -267z" />
    <glyph glyph-name="three" unicode="3" 
d="M930 1032c2 8 3.33008 16.6709 3.99707 26.0039s1.33398 17.666 2.00098 24.999c0 42.667 -13 77.167 -39 103.5s-60.333 39.5 -103 39.5c-64 0 -117.5 -20 -160.5 -60s-74.167 -98.333 -93.5 -175v0h-262v0c19.333 132.667 82.333 243 189 331s231 132 373 132
c123.333 0 219.5 -26.833 288.5 -80.5s103.833 -127.834 104.5 -222.501c0 -15.333 -1 -31.833 -3 -49.5s-4.66699 -34.167 -8 -49.5c-20.667 -100.667 -82.334 -184.667 -185.001 -252l-50 -29v0l48 -28c76.667 -52.667 115 -125.334 115 -218.001
c0 -12 -0.833008 -25.5 -2.5 -40.5s-3.83398 -29.5 -6.50098 -43.5c-30 -144 -100.333 -260 -211 -348c-109.333 -87.333 -239.666 -131 -390.999 -131c-163.333 0 -278.333 39 -345 117s-87 198 -61 360v0h275v0c-13.333 -84.667 -6.66602 -147.334 20.001 -188.001
s74.334 -61 143.001 -61c66.667 0 125 22.5 175 67.5s82.667 104.5 98 178.5c1.33301 8.66699 2.5 17 3.5 25s1.5 15 1.5 21c0 48 -19.167 85.167 -57.5 111.5s-93.166 39.5 -164.499 39.5h-71l43 208h52c78.667 0 141.667 16.333 189 49c47.333 32 77.333 79.333 90 142z
" />
    <glyph glyph-name="four" unicode="4" 
d="M698 321h-575l26 125l26 125l718 886h162h163l-188 -908v0h164l-47 -228h-164v0l-66 -321h-285l66 321v0zM745 549l128 617v0v0l-474 -595l-18 -22v0h364z" />
    <glyph glyph-name="five" unicode="5" 
d="M1158 483c-32.667 -156 -107.998 -282.001 -225.998 -378.001c-116.667 -95.333 -255 -143 -415 -143c-129.333 0 -228.333 37.5 -297 112.5s-98.334 179.167 -89.001 312.5v0h289v0c0 -68 14 -117.833 42 -149.5s72.333 -47.5 133 -47.5c63.333 0 119.333 24.333 168 73
s81.334 112.667 98.001 192c2.66699 14.667 5 29.834 7 45.501s3 29.5 3 41.5c-0.666992 56 -15.834 100.333 -45.501 133s-69.834 49 -120.501 49c-42 0 -83.333 -9.66699 -124 -29c-39.333 -18.667 -71 -43.334 -95 -74.001l-254 16l271 792v0h800l-49 -241h-597v0
l-116 -315v0c94.667 52 188 78.333 280 79c104 0 188.333 -32.167 253 -96.5s97 -148.166 97 -251.499c-0.666992 -17.333 -2 -37.333 -4 -60c-2.66699 -22 -5.66699 -42.333 -9 -61z" />
    <glyph glyph-name="six" unicode="6" 
d="M920 1454c123.333 0 215.999 -32.6709 277.999 -98.0039s86.333 -156 73 -272v0h-281v0c-2.66699 46.667 -14.667 82.167 -36 106.5s-51.666 36.5 -90.999 36.5h-12c-86 0.666992 -158 -40.666 -216 -123.999c-44.667 -64 -83.667 -157 -117 -279v0
c95.333 78.667 197 118 305 118c113.333 0 202 -29.5 266 -88.5s95.333 -140.833 94 -245.5c0.666992 -21.333 -0.333008 -44.166 -3 -68.499s-6.66699 -48.166 -12 -71.499c-30 -145.333 -103 -266 -219 -362c-114 -96 -243.333 -144 -388 -144
c-164.667 0 -277.334 61.667 -338.001 185c-33.333 66.667 -49.666 151.334 -48.999 254.001c-0.666992 83.333 10.333 178.333 33 285c53.333 259.333 141 454.333 263 585c114 122.667 253.667 184 419 184zM447.999 459.996
c-2.66699 -11.333 -4.66797 -24.002 -6.00098 -38.002s-2 -25.667 -2 -35c0 -56.667 15.833 -103.667 47.5 -141s71.5 -56 119.5 -56c68 0 125.833 23.833 173.5 71.5s80.5 113.834 98.5 198.501c2 10.667 3.66699 22.5 5 35.5s2 24.833 2 35.5
c0 54.667 -15.667 98.834 -47 132.501s-72.666 50.5 -123.999 50.5c-61.333 0 -117.666 -24.333 -168.999 -73c-50.667 -48 -83.334 -108.333 -98.001 -181z" />
    <glyph glyph-name="seven" unicode="7" 
d="M256 0c63.333 226.667 165.333 444.999 306 654.999c132.667 196 286.667 369.333 462 520v0h-709l52 254h1024l-22 -110l-23 -111c-192 -160.667 -356.333 -346 -493 -556c-137.333 -209.333 -236 -426.666 -296 -651.999h-301z" />
    <glyph glyph-name="eight" unicode="8" 
d="M1015 779c18.667 -8.66699 35.335 -18 50.002 -28c74 -50.667 111.333 -123.667 112 -219c-0.666992 -14 -1.83398 -29.333 -3.50098 -46s-4.16699 -33.667 -7.5 -51c-30 -142 -100 -256.333 -210 -343s-240.667 -130 -392 -130c-136 0 -240.333 29 -313 87
s-109.334 141.333 -110.001 250c0.666992 20.667 2.16699 42.667 4.5 66s6.16602 46.666 11.499 69.999c24 117.333 89.667 212 197 284c28.667 19.333 59.667 36.333 93 51v0l-23 14c-68 44 -102.333 107.667 -103 191c0 12 0.833008 24.833 2.5 38.5
s3.83398 27.167 6.50098 40.5c24.667 120 86.667 216.667 186 290s218 110 356 110c121.333 0 216 -26.667 284 -80s102 -127 102 -221c0.666992 -15.333 0 -31.833 -2 -49.5s-4.66699 -34.167 -8 -49.5c-21.333 -100.667 -80.333 -182 -177 -244
c-17.333 -11.333 -36 -21.666 -56 -30.999zM747.001 861c55.333 0 103.501 16.668 144.501 50.001s66.833 77 77.5 131c2 7.33301 3.33301 15.333 4 24s1 17 1 25c0 41.333 -13.667 74.166 -41 98.499s-64.333 36.5 -111 36.5c-55.333 0 -103.333 -16.833 -144 -50.5
s-66.667 -78.167 -78 -133.5c-1.33301 -7.33301 -2.33301 -15.333 -3 -24s-1.33398 -16.667 -2.00098 -24c0 -41.333 13.667 -74 41 -98c27.333 -23.333 64.333 -35 111 -35zM704.002 643.001c-62 0 -116.333 -20.8301 -163 -62.4971s-77.334 -96.834 -92.001 -165.501
c-2 -10.667 -3.66699 -21.834 -5 -33.501s-2 -21.834 -2 -30.501c0 -50 15 -89.333 45 -118s71 -43 123 -43c62.667 0 117.334 20.667 164.001 62s76.667 95.666 90 162.999c2.66699 11.333 4.66699 22.833 6 34.5s2 21.834 2 30.501c-0.666992 50 -15.667 89.667 -45 119
c-30 29.333 -71 44 -123 44z" />
    <glyph glyph-name="nine" unicode="9" 
d="M513 -38c-123.333 0 -216.329 32.6689 -278.996 98.002s-87.334 156 -74.001 272v0h281v0c2.66699 -46.667 14.834 -82.167 36.501 -106.5s52.167 -36.5 91.5 -36.5h12c85.333 -0.666992 157 40.666 215 123.999c45.333 64.667 84.666 157.667 117.999 279v0
c-94.667 -78.667 -196.334 -118 -305.001 -118c-112.667 0 -200.834 30.333 -264.501 91s-94.834 144.667 -93.501 252c-0.666992 22.667 0.5 47.167 3.5 73.5s7.16699 51.833 12.5 76.5c29.333 142.667 100.5 259.5 213.5 350.5s243.5 136.5 391.5 136.5
c164.667 0 276.667 -61.667 336 -185c34 -66.667 50.667 -151.334 50 -254.001c0 -83.333 -11 -178.333 -33 -285c-54 -259.333 -141.667 -454.333 -263 -585c-114 -122.667 -253.667 -184 -419 -184zM982.004 951.002c3.33301 14 5.83203 28.5 7.49902 43.5
s2.5 28.5 2.5 40.5c-0.666992 56 -16 100.333 -46 133s-71 49 -123 49c-68 0 -126 -23.5 -174 -70.5s-80.667 -112.167 -98 -195.5c-3.33301 -16 -5.83301 -31.333 -7.5 -46s-2.5 -28.334 -2.5 -41.001c0 -53.333 14.833 -93.666 44.5 -120.999s73.167 -41 130.5 -41
c64.667 0 121.334 23 170.001 69c48.667 45.333 80.667 105.333 96 180z" />
    <glyph glyph-name="colon" unicode=":" horiz-adv-x="682" 
d="M249 298h308l-61 -298h-308zM404 1047h308l-61 -298h-308z" />
    <glyph glyph-name="semicolon" unicode=";" horiz-adv-x="682" 
d="M223 150l30 148.998h153h153l-46 -225c-24 -117.333 -68.5 -210.166 -133.5 -278.499s-153.167 -115.166 -264.5 -140.499v0l23 113v0c76 23.333 130.667 57 164 101c23.333 30 43.333 73.667 60 131v0h-17h-153zM409 1047h308l-61 -298h-308z" />
    <glyph glyph-name="less" unicode="&#x3c;" horiz-adv-x="1196" 
d="M168 424l20 93l19 93l1134 443l-46 -220l-810 -315v0l679 -317l-44 -220z" />
    <glyph glyph-name="equal" unicode="=" horiz-adv-x="1196" 
d="M166 407h1030l-47 -226h-1030zM258 854h1030l-46 -226h-1030z" />
    <glyph glyph-name="greater" unicode="&#x3e;" horiz-adv-x="1196" 
d="M1206 424l-1132 -443l44 220l811 317v0l-680 315l46 220l950 -443l-19 -93z" />
    <glyph glyph-name="question" unicode="?" horiz-adv-x="1251" 
d="M883 1248c-62.667 0 -114.999 -20.333 -156.999 -61s-74.333 -101.667 -97 -183v0h-291v0c23.333 143.333 90.5 260.5 201.5 351.5s242.167 136.5 393.5 136.5c161.333 0 279.166 -39.5 353.499 -118.5s97.166 -188.5 68.499 -328.5
c-14.667 -69.333 -49.834 -134.333 -105.501 -195s-146.167 -131.667 -271.5 -213c-28.667 -18.667 -54.5 -47.167 -77.5 -85.5s-38.167 -78.5 -45.5 -120.5h-262c17.333 96 47.833 174.833 91.5 236.5s108.5 117.5 194.5 167.5c44.667 26 84 58.667 118 98
s54.667 76.666 62 111.999c12.667 62.667 3.33398 112.334 -27.999 149.001c-31.333 36 -80.666 54 -147.999 54zM549.001 286h290l-59 -286h-290z" />
    <glyph glyph-name="at" unicode="@" horiz-adv-x="1997" 
d="M1464 460c73.333 0 146.996 55.001 220.996 165.001s111 219.333 111 328c0 118 -42.333 212.833 -127 284.5s-196.667 107.5 -336 107.5c-204.667 0 -380.5 -75.667 -527.5 -227s-220.5 -332.333 -220.5 -543c-0.666992 -137.333 45.833 -247.666 139.5 -330.999
s217.5 -125 371.5 -125c90 0 179.5 16.333 268.5 49s161.167 75.667 216.5 129h176c-77.333 -102 -182.166 -184.333 -314.499 -247s-268.166 -94 -407.499 -94c-192 0 -349 58.333 -471 175s-183 266.667 -183 450c0 241.333 98.667 456.166 296 644.499
s422.333 282.5 675 282.5c184 0 331.833 -47.667 443.5 -143s167.5 -221.666 167.5 -378.999c-0.666992 -178.667 -70.5 -341 -209.5 -487s-293.5 -219 -463.5 -219c-41.333 0 -68.333 18 -81 54c-6 15.333 -8 33 -6 53v0c-83.333 -71.333 -163.333 -107 -240 -107
c-78 0 -142 24.5 -192 73.5s-76 112.5 -78 190.5c-0.666992 30 4 66.167 14 108.5s22.667 82.166 38 119.499c46.667 107.333 117.667 196.666 213 267.999s192 107 290 107c108.667 0 176.334 -40.333 203.001 -121l6 -18v0l47 110v0h180l-229 -533
c-19.333 -44 -28.166 -75.833 -26.499 -95.5s13.5 -29.5 35.5 -29.5zM1224 944.001c-50 0 -101.166 -19.167 -153.499 -57.5s-89.833 -84.166 -112.5 -137.499c-12.667 -28.667 -22.667 -56.334 -30 -83.001c-6 -26 -8.66699 -48.333 -8 -67
c1.33301 -35.333 13.166 -62.833 35.499 -82.5s54.166 -29.5 95.499 -29.5c54 0 106.333 20 157 60s90.334 93 119.001 159c32 76 39.167 134.667 21.5 176s-59.167 62 -124.5 62z" />
    <glyph glyph-name="A" unicode="A" horiz-adv-x="1479" 
d="M41 0l841 1470h177h177l206 -1470v0h-167h-168v0l-34 308v0h-543v0l-164 -308v0h-162h-163v0zM983 1146l-320 -595v0h386v0l-66 595v0v0z" />
    <glyph glyph-name="B" unicode="B" horiz-adv-x="1479" 
d="M156 0l303.998 1470v0h153v0h570c122 0 215.333 -25.333 280 -76s97.334 -123.667 98.001 -219c-0.666992 -17.333 -2 -35.833 -4 -55.5s-5 -39.5 -9 -59.5c-20.667 -99.333 -82 -179.333 -184 -240c-16 -10 -33 -19 -51 -27v0c20.667 -8 39.334 -18 56.001 -30
c74 -51.333 111 -125.333 111 -222c0 -15.333 -1 -31.5 -3 -48.5s-4.66699 -33.833 -8 -50.5c-28.667 -138.667 -99.5 -247 -212.5 -325s-255.5 -117 -427.5 -117h-520v0h-153v0zM712.998 1213l-65.999 -317.003v0h361c71.333 0 126.833 12.833 166.5 38.5
s65.167 65.167 76.5 118.5c1.33301 8.66699 2.5 16.834 3.5 24.501s1.5 15.834 1.5 24.501c0 38.667 -14.333 66.834 -43 84.501s-74.334 26.5 -137.001 26.5h-363v0zM594.999 644.997l-79.9971 -387.998v0h353c85.333 0 151.666 15.667 198.999 47
s77.666 79.666 90.999 144.999c2.66699 11.333 4.66699 21.666 6 30.999s1.66602 18 0.999023 26c0 46.667 -16 81.5 -48 104.5s-80.333 34.5 -145 34.5h-377v0z" />
    <glyph glyph-name="C" unicode="C" horiz-adv-x="1479" 
d="M1498 500c-57.333 -164.667 -151.497 -295.334 -282.497 -392.001s-279.5 -145 -445.5 -145c-172 0 -306.833 47.167 -404.5 141.5s-146.5 225.166 -146.5 392.499c0.666992 33.333 3.16699 70.5 7.5 111.5s10.833 81.5 19.5 121.5c49.333 238 148.5 427 297.5 567
s326.167 210 531.5 210c186.667 0 325.334 -44.333 416.001 -133c81.333 -79.333 122 -190.666 122 -333.999l-2 -55v0h-307v0c-4.66699 95.333 -27.334 162.5 -68.001 201.5s-108 58.5 -202 58.5c-114 0 -213.667 -46.333 -299 -139s-144.333 -217.667 -177 -375
c-6.66699 -30.667 -11.667 -61.667 -15 -93s-5 -59.666 -5 -84.999c0 -102.667 25.167 -183 75.5 -241s120.166 -87 209.499 -87c81.333 0 155.666 25.167 222.999 75.5s115.666 116.833 144.999 199.5v0h307z" />
    <glyph glyph-name="D" unicode="D" horiz-adv-x="1479" 
d="M156 0l304 1470v0h153v0h373c196.667 0 345.667 -41.333 447 -124s152 -204.334 152 -365.001c-0.666992 -33.333 -3 -68.666 -7 -105.999s-10 -75.333 -18 -114c-57.333 -274 -150.333 -469.333 -279 -586s-316 -175 -562 -175h-410v0h-153v0zM512 244
l256.999 0.000976562c134 0 236.333 33.333 307 100s122.334 178 155.001 334c9.33301 46 16.166 87.5 20.499 124.5s6.83301 72.5 7.5 106.5c-0.666992 107.333 -27.167 186.166 -79.5 236.499s-134.166 75.5 -245.499 75.5h-220v0z" />
    <glyph glyph-name="E" unicode="E" horiz-adv-x="1366" 
d="M156 0l304 1470v0h1085v0l-25 -131l-25 -131v0h-783v0l-64 -305v0h723l-27 -131l-27 -131v0h-723v0l-78 -379v0h817v0l-29 -131l-29 -131v0h-1119z" />
    <glyph glyph-name="F" unicode="F" horiz-adv-x="1251" 
d="M156 0l304 1470v0h1054v0l-25 -131l-25 -131v0h-752v0l-68 -328v0h642l-27 -131l-28 -131v0h-642v0l-127 -618h-153h-153z" />
    <glyph glyph-name="G" unicode="G" horiz-adv-x="1593" 
d="M783 -37c-175.333 0 -312.832 47.5 -412.499 142.5s-149.5 226.5 -149.5 394.5c0 33.333 2.33301 70.333 7 111s11 80.334 19 119.001c49.333 238 153.333 427 312 567s348.667 210 570 210c186 0 324.833 -41.833 416.5 -125.5s131.834 -206.167 120.501 -367.5v0h-306
v0c-3.33301 76 -28.833 135.333 -76.5 178s-111.834 64 -192.501 64c-130 0 -242.833 -47 -338.5 -141s-159.834 -221 -192.501 -381c-6.66699 -31.333 -11.667 -62.333 -15 -93s-5.33301 -59.334 -6 -86.001c0 -108.667 29 -191.667 87 -249s141.333 -86 250 -86
c114.667 0 215.667 46.333 303 139c49.333 52.667 89.333 115 120 187v0h-341l51 248h612l-164 -790h-204l9 188v0l-20 -22c-130.667 -138 -283.667 -207 -459 -207z" />
    <glyph glyph-name="H" unicode="H" horiz-adv-x="1479" 
d="M145 0l304 1470v0h153h153v0l-116 -560v0h581v0l116 560v0h153h153v0l-304 -1470v0h-153h-153v0l134 648v0h-581v0l-134 -648v0h-153h-153v0z" />
    <glyph glyph-name="I" unicode="I" horiz-adv-x="569" 
d="M131 0l304 1470v0h153h153v0l-304 -1470v0h-153h-153v0z" />
    <glyph glyph-name="J" unicode="J" 
d="M962 1470l152.998 -0.000976562h153v0l-212 -1023c-34 -164 -98 -285.667 -192 -365c-92.667 -79.333 -219 -119 -379 -119c-162.667 0 -273.167 42.333 -331.5 127s-68.5 219 -30.5 403l12 58h285l-12 -58c-21.333 -100.667 -22.666 -172.5 -3.99902 -215.5
s60.334 -64.5 125.001 -64.5c66 0 114.833 16.833 146.5 50.5s56.5 94.834 74.5 183.501v0z" />
    <glyph glyph-name="K" unicode="K" horiz-adv-x="1479" 
d="M178 0l304 1470v0h153h153v0l-125 -605v0l699 605v0h197h197v0l-725 -611v0l447 -859v0h-198h-199v0l-311 641v0l-186 -158v0l-100 -483v0h-153h-153v0z" />
    <glyph glyph-name="L" unicode="L" horiz-adv-x="1251" 
d="M156 0l304 1470v0h153h153v0l-250 -1208v0h731v0l-29 -131l-29 -131v0h-1033z" />
    <glyph glyph-name="M" unicode="M" horiz-adv-x="1706" 
d="M427 0h-143h-143v0l304 1470v0h223h224v0l33 -1167v0v0l507 1167v0h223h224v0l-304 -1470v0h-143h-143v0l258 1247v0l-538 -1247h-151h-151l-22 1247v0z" />
    <glyph glyph-name="N" unicode="N" horiz-adv-x="1479" 
d="M427 0h-143h-143v0l304 1470v0h162h162v0l378 -1041v0v0l216 1041v0h143h143v0l-304 -1470h-152h-153l-395 1057v0v0z" />
    <glyph glyph-name="O" unicode="O" horiz-adv-x="1593" 
d="M793 -37c-179.333 0 -319.831 47.668 -421.498 143.001s-152.5 227.666 -152.5 396.999c0 33.333 2.16699 70 6.5 110s10.5 79 18.5 117c49.333 238 152 427 308 567s342.667 210 560 210c179.333 0 319.666 -48.167 420.999 -144.5s152 -229.833 152 -400.5
c-0.666992 -33.333 -3.16699 -70.5 -7.5 -111.5s-10.5 -81.167 -18.5 -120.5c-48.667 -235.333 -151.334 -422 -308.001 -560c-155.333 -138 -341.333 -207 -558 -207v0zM845.002 220.001c121.333 0 227.166 46.001 317.499 138.001s151.833 216.333 184.5 373
c6 29.333 10.667 59.666 14 90.999s5.33301 60 6 86c0 107.333 -27.333 191.166 -82 251.499s-130.334 90.5 -227.001 90.5c-121.333 0 -227.166 -46.667 -317.499 -140s-151.833 -219.666 -184.5 -378.999c-6 -30 -10.833 -60.333 -14.5 -91s-5.5 -58 -5.5 -82
c0 -106 27.333 -188.833 82 -248.5s130.334 -89.5 227.001 -89.5v0z" />
    <glyph glyph-name="P" unicode="P" horiz-adv-x="1366" 
d="M156 0l304.002 1470v0h153v0h506c127.333 0 224.666 -28.167 291.999 -84.5s101 -137.5 101 -243.5v-3c0 -20.667 -1.33301 -43.167 -4 -67.5s-6.66699 -49.166 -12 -74.499c-29.333 -140 -96.333 -252.667 -201 -338s-228.334 -128 -371.001 -128h-353v0l-109 -531v0
h-153h-153v0zM625.002 787.999h295.002c77.333 0 138.166 17.5 182.499 52.5s74.166 88.833 89.499 161.5c2.66699 13.333 4.66699 25.5 6 36.5s2 21.5 2 31.5c0 52 -18.667 89.833 -56 113.5s-97 35.5 -179 35.5h-251v0z" />
    <glyph glyph-name="Q" unicode="Q" horiz-adv-x="1593" 
d="M1323 -113l-137.999 167.001v0c-117.333 -60.667 -248 -91 -392 -91c-179.333 0 -319.833 47.667 -421.5 143s-152.5 227.666 -152.5 396.999c0 33.333 2.16699 70 6.5 110s10.5 79 18.5 117c49.333 238 152 427 308 567s342.667 210 560 210
c179.333 0 319.666 -48.167 420.999 -144.5s152 -229.833 152 -400.5c-0.666992 -33.333 -3.16699 -70.5 -7.5 -111.5s-10.5 -81.167 -18.5 -120.5c-44 -214 -133 -387.667 -267 -521v0l127 -150zM897.001 404.001l187.999 164.001c-24 27.333 3 -4.66699 81 -96l48 -56v0
c62.667 84.667 107 189.667 133 315c6 29.333 10.667 59.666 14 90.999s5.33301 60 6 86c0 107.333 -27.333 191.166 -82 251.499s-130.334 90.5 -227.001 90.5c-121.333 0 -227.166 -46.667 -317.499 -140s-151.833 -219.666 -184.5 -378.999
c-6 -30 -10.833 -60.333 -14.5 -91s-5.5 -58 -5.5 -82c0 -106 27.333 -188.833 82 -248.5s130.334 -89.5 227.001 -89.5c62.667 0 120.667 12 174 36v0z" />
    <glyph glyph-name="R" unicode="R" horiz-adv-x="1479" 
d="M156 0l303.999 1470v0h153v0h612c116 0 206.667 -27.667 272 -83s98 -132 98 -230c0 -16.667 -1.16699 -35.167 -3.5 -55.5s-5.5 -39.833 -9.5 -58.5c-25.333 -124 -88.333 -219.667 -189 -287c-31.333 -20.667 -66 -38.667 -104 -54v0c14.667 -6 27.667 -13 39 -21
c73.333 -50 99.333 -134 78 -252l-42 -239c-8.66699 -48 -10.667 -82 -6 -102s18 -36 40 -48l-8 -39h-339c-6 18 -7.16699 52.167 -3.5 102.5s10.834 103.166 21.501 158.499l26 134c12 67.333 2.5 115.333 -28.5 144s-89.833 43 -176.5 43h-308v0l-120 -583v0h-153h-153v0z
M632.999 827.001l378.999 0.000976562c75.333 0 134 15 176 45s69.667 76.333 83 139c2.66699 13.333 4.66699 25.5 6 36.5s2 21.833 2 32.5c0 49.333 -16.667 85.166 -50 107.499s-86.666 33.5 -159.999 33.5h-355v0z" />
    <glyph glyph-name="S" unicode="S" horiz-adv-x="1366" 
d="M1169 1029c0 84 -19.6699 143.167 -59.0029 177.5s-107 51.5 -203 51.5c-77.333 0 -141.166 -17.167 -191.499 -51.5s-81.833 -82.166 -94.5 -143.499c-10 -48 4.66699 -84 44 -108s127.333 -50.667 264 -80c205.333 -44.667 338.333 -97.667 399 -159
c40.667 -41.333 61 -100 61 -176c0 -36.667 -4.66699 -77 -14 -121c-29.333 -142.667 -106 -254.334 -230 -335.001c-122.667 -80.667 -278.667 -121 -468 -121s-326.333 41 -411 123c-67.333 65.333 -100.666 157 -99.999 275c-0.666992 30 1.33301 61.667 6 95v0h294v0
c-10.667 -82.667 5.33301 -144 48 -184s113.667 -60 213 -60c98.667 0 179.167 16.667 241.5 50s99.5 79.333 111.5 138c11.333 54 0 93.667 -34 119c-34 24.667 -111 50 -231 76c-220 48 -363 102.333 -429 163c-46 42 -69 102 -69 180c0 32 4 67.333 12 106
c30 145.333 103.833 258.833 221.5 340.5s265.834 122.5 444.501 122.5c172 0 297.667 -40.667 377 -122c66 -66.667 99.333 -159 100 -277l-5 -79v0h-298z" />
    <glyph glyph-name="T" unicode="T" horiz-adv-x="1251" 
d="M487 0l250 1208v0h-450v0l29 131l29 131v0h1199v0l-25 -131l-25 -131v0h-451v0l-250 -1208v0h-153h-153v0z" />
    <glyph glyph-name="U" unicode="U" horiz-adv-x="1479" 
d="M1434 484c-34.667 -166.667 -113.667 -295.333 -237 -386c-122 -90 -279.333 -135 -472 -135c-181.333 0 -314.333 46 -399 138c-58.667 65.333 -88 148.333 -88 249c0 41.333 5 86 15 134l204 986v0h156h156v0l-202 -976c-6 -27.333 -8.66699 -52.333 -8 -75
c-0.666992 -50 11.666 -91 36.999 -123c36.667 -47.333 96.334 -71 179.001 -71c95.333 0 173.5 23.333 234.5 70s100.5 113 118.5 199l202 976v0h154h154v0z" />
    <glyph glyph-name="V" unicode="V" horiz-adv-x="1366" 
d="M352 1470h165h165v0l78 -1123v0v0l565 1123v0h157h158v0l-812 -1470h-148h-149z" />
    <glyph glyph-name="W" unicode="W" horiz-adv-x="1933" 
d="M451 0l-105 1470v0h168h169v0l8 -1058v0v0l423 1058h163h163l-4 -1071v0v0l475 1071v0h154h154v0l-723 -1470h-148h-149l13 1141v0v0l-476 -1141h-142h-143z" />
    <glyph glyph-name="X" unicode="X" horiz-adv-x="1366" 
d="M29 0l635 740v0l-294 730v0h181h181v0l162 -478v0v0l369 478v0h176h176v0l-593 -701v0l320 -769v0h-186h-187v0l-181 501v0v0l-397 -501v0h-181h-181v0z" />
    <glyph glyph-name="Y" unicode="Y" horiz-adv-x="1366" 
d="M652 556l-308 914v0h181h181v0l167 -634v0l424 634v0h173h174v0l-686 -913v0l-115 -557h-153h-153z" />
    <glyph glyph-name="Z" unicode="Z" horiz-adv-x="1251" 
d="M100 241l964 967v0h-737v0l29 131l29 131v0h1121l-25 -120l-25 -121l-965 -967v0h762v0l-29 -131l-29 -131v0h-1144l24 120z" />
    <glyph glyph-name="bracketleft" unicode="[" horiz-adv-x="682" 
d="M43 -405l388 1882v0h510l-40 -194h-258v0l-306 -1484v0h258l-42 -204h-510v0z" />
    <glyph glyph-name="backslash" unicode="\" horiz-adv-x="569" 
d="M390 -41l-136 1552h238l136 -1552h-238z" />
    <glyph glyph-name="bracketright" unicode="]" horiz-adv-x="682" 
d="M474 -405h-510l42 204h258v0l306 1484v0h-258l40 194h510v0z" />
    <glyph glyph-name="asciicircum" unicode="^" horiz-adv-x="1196" 
d="M1002 1430l210 -770h-224l-133 539v0l-363 -539h-224l530 770h102h102z" />
    <glyph glyph-name="underscore" unicode="_" 
d="M-54 -256l22 104h1139l-22 -104h-1139z" />
    <glyph glyph-name="grave" unicode="`" horiz-adv-x="682" 
d="M517 1238l-238 299h316l128 -299h-206z" />
    <glyph glyph-name="a" unicode="a" 
d="M400 -29c-89.333 0 -159.499 21.168 -210.499 63.501s-76.5 101.166 -76.5 176.499c0 12 0.833008 25.667 2.5 41s4.16699 30.333 7.5 45c18.667 90.667 63.334 166.667 134.001 228s157.334 99 260.001 113l242 34c22.667 3.33301 44 9 64 17
c25.333 10 44.666 24.5 57.999 43.5s19.666 41.167 18.999 66.5c-0.666992 26.667 -9.66699 47 -27 61c-24.667 19.333 -69.334 29 -134.001 29c-49.333 0 -91.333 -12.833 -126 -38.5s-61.667 -63.834 -81 -114.501v0h-271v0c28 124.667 89.333 219.334 184 284.001
s219 97 373 97c140.667 0 242.334 -27.333 305.001 -82c46.667 -40 69.667 -94 69 -162c0.666992 -23.333 -2 -48.333 -8 -75l-123 -593c-10 -48 -13 -84.833 -9 -110.5s15.667 -43.5 35 -53.5v-1l-8 -39h-155h-155v0c-4.66699 42.667 -4 85 2 127v0
c-112.667 -104.667 -236.334 -157 -371.001 -157zM820.001 396.001l27 132v0c-27.333 -15.333 -57.333 -26.666 -90 -33.999l-116 -23c-76 -15.333 -130.5 -34.666 -163.5 -57.999s-54.167 -57.333 -63.5 -102c-1.33301 -6.66699 -1.33301 -6.66699 0 0
c-1.33301 -6.66699 -2.33301 -13.334 -3 -20.001s-1 -13 -1 -19c0 -30.667 9.83301 -54.334 29.5 -71.001s47.167 -25 82.5 -25c90.667 0 171 36 241 108c12 12 23.333 28.667 34 50c11.333 22 19 42.667 23 62z" />
    <glyph glyph-name="b" unicode="b" horiz-adv-x="1251" 
d="M429 1470l146.002 -0.000976562h146v0l-107 -514v0c108.667 108 226.667 161.667 354 161c110 0 196 -33.667 258 -101s93 -160.666 93 -279.999c-0.666992 -27.333 -2.83398 -58 -6.50098 -92s-8.83398 -67.333 -15.501 -100c-34 -164 -105.5 -300.5 -214.5 -409.5
s-228.833 -163.5 -359.5 -163.5c-131.333 0 -224 51.333 -278 154l-12 25v0l-31 -150v0h-277v0zM692.002 206.999c72 0 135.999 29.668 191.999 89.001s94 137.666 114 234.999c4.66699 21.333 8.33398 43 11.001 65s4 42.333 4 61c-0.666992 67.333 -17 119.333 -49 156
s-77 55 -135 55c-70 0 -133.5 -29.667 -190.5 -89s-94.833 -135.333 -113.5 -228v0h1v0c-23.333 -110 -20.333 -195 9 -255c28.667 -59.333 81 -89 157 -89z" />
    <glyph glyph-name="c" unicode="c" 
d="M1157 397c-46 -130.667 -121.834 -234.332 -227.501 -310.999s-226.167 -115 -361.5 -115c-130.667 0 -231 32.667 -301 98s-105 159.666 -105 282.999c0 28 1.83301 58.167 5.5 90.5s8.83398 64.833 15.501 97.5c37.333 180.667 112.5 322 225.5 424
s251.167 153 414.5 153c139.333 0 244 -36.667 314 -110c58 -60 86.667 -140 86 -240l-4 -67v0h-290v0c-2.66699 62 -16.334 106.833 -41.001 134.5s-63 41.5 -115 41.5c-74.667 0 -136.5 -29.167 -185.5 -87.5s-85.833 -145.833 -110.5 -262.5
c-4 -22 -7.33301 -44.167 -10 -66.5s-4 -42.833 -4 -61.5c0 -60.667 13.333 -107.667 40 -141s64.334 -50 113.001 -50c55.333 0 106 17.5 152 52.5s79 80.833 99 137.5v0h290z" />
    <glyph glyph-name="d" unicode="d" horiz-adv-x="1251" 
d="M520 -29c-110 0 -196.167 35.166 -258.5 105.499s-93.5 167.833 -93.5 292.5c0 30 2.16699 63.833 6.5 101.5s10.166 74.834 17.499 111.501c32 153.333 100.333 280.833 205 382.5s220.334 152.5 347.001 152.5c138.667 0 236 -52.333 292 -157l5 -9v0l108 519v0h143
h144v0l-304 -1470v0h-143h-144v0l25 123v0c-105.333 -101.333 -222 -152 -350 -152zM793 868.999c-73.333 0 -138.666 -30.166 -195.999 -90.499s-96.333 -139.833 -117 -238.5c-4.66699 -22 -8.16699 -43.667 -10.5 -65s-3.5 -40.333 -3.5 -57
c0 -67.333 16.5 -119.333 49.5 -156s79.5 -55 139.5 -55c74 0 139.667 29.167 197 87.5s95.666 135.166 114.999 230.499c22.667 110 19 194.833 -11 254.5s-84.333 89.5 -163 89.5z" />
    <glyph glyph-name="e" unicode="e" 
d="M583 -29c-142 0 -250.831 33.499 -326.498 100.499s-113.5 163.5 -113.5 289.5c0.666992 26.667 2.66699 55.334 6 86.001s8 61.667 14 93c37.333 180.667 112.166 322 224.499 424s249.5 153 411.5 153c136.667 0 240 -33.333 310 -100s105 -164.667 105 -294
c0 -32 -2 -66.333 -6 -103s-10.333 -74.667 -19 -114l-7 -35v0h-746v0l-2 -14c-2.66699 -20 -4 -39 -4 -57c0.666992 -66 17.667 -115.5 51 -148.5s83.666 -49.5 150.999 -49.5c48.667 0 93 10.5 133 31.5s68.333 48.5 85 82.5v0h290v0
c-50.667 -106 -126.167 -190 -226.5 -252s-210.5 -93 -330.5 -93zM928.002 657.999l1.00195 38.001c0 62.667 -14.833 109.167 -44.5 139.5s-74.834 45.5 -135.501 45.5c-76.667 0 -140.334 -29.667 -191.001 -89c-29.333 -34.667 -54.333 -79.334 -75 -134.001v0h445z" />
    <glyph glyph-name="f" unicode="f" horiz-adv-x="682" 
d="M647 883l-181.999 -882.999v0h-143h-144v0l182 883v0h-160l43 205h160v0l19 91c21.333 105.333 65 183.5 131 234.5s156.667 76.5 272 76.5l132 -3l-48 -236h-87c-38.667 0 -66.334 -7.83301 -83.001 -23.5s-29.667 -45.834 -39 -90.501l-10 -49v0h185l-43 -205h-185z
" />
    <glyph glyph-name="g" unicode="g" horiz-adv-x="1251" 
d="M575 -229c80.667 0 144.833 20.6689 192.5 62.002s80.167 105.333 97.5 192l31 153v0c-14 -20.667 -29 -39.334 -45 -56.001c-80.667 -85.333 -180.334 -128 -299.001 -128c-117.333 0 -209.166 34.167 -275.499 102.5s-99.833 162.833 -100.5 283.5
c0 26 1.83301 55 5.5 87s8.83398 63.667 15.501 95c32.667 159.333 104 291.666 214 396.999s231.667 158 365 158c122.667 0 208.334 -45.667 257.001 -137c10.667 -19.333 19.667 -41.333 27 -66v0l36 174v0h270l-214 -1031
c-34.667 -170.667 -103.834 -297.167 -207.501 -379.5s-245.5 -123.5 -425.5 -123.5c-152.667 0 -267.334 28.167 -344.001 84.5s-109 136.833 -97 241.5v0h312v0c0 -40 13.833 -68.167 41.5 -84.5s75.5 -24.5 143.5 -24.5zM800.999 868.002
c-71.333 0 -134.833 -28.999 -190.5 -86.999s-93.167 -134.667 -112.5 -230c-4.66699 -20.667 -8 -41.167 -10 -61.5s-3.33301 -38.833 -4 -55.5c0 -64.667 16 -114.834 48 -150.501s77.333 -53.5 136 -53.5c72 0 135.667 28 191 84s92.333 130 111 222
c22 106 18.333 187.833 -11 245.5s-82 86.5 -158 86.5z" />
    <glyph glyph-name="h" unicode="h" horiz-adv-x="1251" 
d="M133 0l304 1470v0h143h144v0l-108 -521v0v0l28 28c90.667 93.333 200.667 140 330 140c117.333 0 202.333 -33.167 255 -99.5s66.667 -158.166 42 -275.499l-153 -742v0h-143h-144v0l139 672c14 69.333 10 120.666 -12 153.999s-63 50 -123 50
c-73.333 0 -135.333 -22.167 -186 -66.5s-84 -105.833 -100 -184.5v0l-129 -625v0h-143h-144v0z" />
    <glyph glyph-name="i" unicode="i" horiz-adv-x="569" 
d="M141 0l225 1088v0h143h144v0l-225 -1088v0h-143h-144v0zM457 1482h290l-54 -262h-290z" />
    <glyph glyph-name="j" unicode="j" horiz-adv-x="569" 
d="M362 1088l142.999 -0.000976562h144v0l-250 -1212c-25.333 -123.333 -67.333 -207.666 -126 -252.999c-57.333 -44.667 -152.666 -67 -285.999 -67h-72l43 228h52c28.667 0 51.167 7.33301 67.5 22s27.833 38 34.5 70v0zM453.999 1482h290l-54 -262h-290z" />
    <glyph glyph-name="k" unicode="k" 
d="M141 0l304 1470v0h143h144v0l-166 -800v0l452 418v0h175h175v0l-474 -409v0l259 -679v0h-171h-172v0l-163 466v0l-150 -130v0l-69 -336v0h-143h-144v0z" />
    <glyph glyph-name="l" unicode="l" horiz-adv-x="569" 
d="M141 0l304 1470v0h143h144v0l-304 -1470v0h-143h-144v0z" />
    <glyph glyph-name="m" unicode="m" horiz-adv-x="1821" 
d="M131 0l225.002 1088v0h139h139v0l-32 -154v0v0l44 52c82.667 87.333 182.667 131 300 131c106 0 182.667 -30 230 -90c20.667 -24.667 34.334 -54 41.001 -88v0l39 47c79.333 87.333 175.666 131 288.999 131c116.667 0 201 -33 253 -99
c36 -44.667 53.667 -101.334 53 -170.001c0.666992 -32 -3 -66.333 -11 -103l-154 -745v0h-143h-144v0l145 705c12.667 58 9.66699 101 -9 129s-53.334 42 -104.001 42c-65.333 0 -118.333 -18.333 -159 -55s-68.667 -91.667 -84 -165v0l-135 -656v0h-143h-144v0l144 697
c12.667 60.667 9.16699 105.667 -10.5 135s-55.834 44 -108.501 44c-64 0 -115.833 -18.333 -155.5 -55s-67.167 -91.667 -82.5 -165v0l-135 -656v0h-143h-144v0z" />
    <glyph glyph-name="n" unicode="n" horiz-adv-x="1251" 
d="M133 0l225 1088v0h139h139v0l-32 -156v0v0l40 45c90.667 93.333 200.667 140 330 140c117.333 0 202.333 -33.167 255 -99.5s66.667 -158.166 42 -275.499l-153 -742v0h-143h-144v0l139 672c14 69.333 10 120.666 -12 153.999s-63 50 -123 50
c-73.333 0 -135.333 -22.167 -186 -66.5s-84 -105.833 -100 -184.5v0l-129 -625v0h-143h-144v0z" />
    <glyph glyph-name="o" unicode="o" horiz-adv-x="1251" 
d="M625 -29c-140.667 0 -251.834 37.166 -333.501 111.499s-122.834 175.5 -123.501 303.5c0 22 1.5 46.833 4.5 74.5s7.16699 54.167 12.5 79.5c36.667 176.667 115.834 317 237.501 421s268.167 156 439.5 156c140.667 0 251.834 -37.667 333.501 -113
s122.5 -177.666 122.5 -306.999c0 -22.667 -1.66699 -48 -5 -76s-7.66602 -55 -12.999 -81c-36 -174.667 -114.833 -313.167 -236.5 -415.5s-267.834 -153.5 -438.501 -153.5v0zM674 211.999c87.333 0 158.665 28.666 213.998 85.999s95 143.666 119 258.999
c4 18.667 7 37.334 9 56.001s3 35.667 3 51c0 67.333 -18 119.5 -54 156.5s-87 55.5 -153 55.5c-86.667 0 -157.667 -29.167 -213 -87.5s-95.333 -146.166 -120 -263.499c-3.33301 -18 -6.16602 -36 -8.49902 -54s-3.16602 -34.667 -2.49902 -50
c0 -66.667 17.833 -118.167 53.5 -154.5s86.5 -54.5 152.5 -54.5v0z" />
    <glyph glyph-name="p" unicode="p" horiz-adv-x="1251" 
d="M350 1088l135.002 -0.000976562h135v0l-32 -156v0l22 23c108 108 226.667 162 356 162c110.667 0 197.167 -33.667 259.5 -101s93.5 -160.666 93.5 -279.999c-0.666992 -27.333 -2.83398 -58 -6.50098 -92s-8.83398 -67.333 -15.501 -100
c-34 -164 -105.833 -300.5 -215.5 -409.5s-230.167 -163.5 -361.5 -163.5c-132 0 -225.333 51.333 -280 154l-2 4v0l-114 -555v0h-143h-144v0zM689.002 206.999c72.667 0 137.331 29.667 193.998 89s95 137.666 115 234.999c4.66699 21.333 8.33398 42.833 11.001 64.5
s3.66699 41.834 3 60.501c0 67.333 -16.167 119.5 -48.5 156.5s-78.166 55.5 -137.499 55.5c-70.667 0 -134.667 -29.667 -192 -89s-95.333 -135.333 -114 -228v0h1v0c-23.333 -110 -20.333 -194.833 9 -254.5s82.333 -89.5 159 -89.5z" />
    <glyph glyph-name="q" unicode="q" horiz-adv-x="1251" 
d="M521 -29c-111.333 0 -198.502 34.001 -261.502 102.001s-94.833 162.333 -95.5 283c0.666992 27.333 2.83398 58.166 6.50098 92.499s8.83398 68.166 15.501 101.499c34 162.667 107.333 297.834 220 405.501s237.334 161.5 374.001 161.5c128 0 217 -52.333 267 -157
l8 -16v0l30 144v0h273v0l-313 -1514v0h-143h-144v0l113 548v0c-104.667 -100 -221.334 -150.333 -350.001 -151zM793.998 869.001c-78.667 0 -145.333 -30.165 -200 -90.498s-93.667 -146.5 -117 -258.5c-4 -19.333 -7.16699 -38.5 -9.5 -57.5
s-3.16602 -36.167 -2.49902 -51.5c0 -64.667 16.5 -114.834 49.5 -150.501s80.167 -53.5 141.5 -53.5c74 0 139.667 29.167 197 87.5s95.666 135.166 114.999 230.499c22.667 110 19 194.833 -11 254.5s-84.333 89.5 -163 89.5z" />
    <glyph glyph-name="r" unicode="r" horiz-adv-x="797" 
d="M131 0l225.001 1088v0h136h137v0l-46 -221v0v0c17.333 27.333 36.333 54 57 80c90 113.333 186.667 170 290 170l69 -1l-51 -244c-24 2.66699 -52.667 4 -86 4c-86 0 -156.833 -26.167 -212.5 -78.5s-93.834 -128.5 -114.501 -228.5v0l-117 -569v0h-143h-144v0z" />
    <glyph glyph-name="s" unicode="s" 
d="M924 762c0 50.667 -12.665 86.502 -37.998 107.502s-69 31.5 -131 31.5c-56.667 0 -102.5 -8.33301 -137.5 -25s-55.5 -39.667 -61.5 -69c-5.33301 -25.333 6 -47 34 -65c28.667 -17.333 81.667 -35 159 -53c170.667 -40 283.334 -84.667 338.001 -134
c40.667 -36.667 61 -85.334 61 -146.001c0 -22 -2.66699 -45.667 -8 -71c-23.333 -112.667 -85.166 -202 -185.499 -268s-224.833 -99 -373.5 -99c-165.333 0 -285.333 31.333 -360 94c-60.667 51.333 -91.334 123.666 -92.001 216.999l5 66v0h293v0
c-6.66699 -54.667 7.66602 -95.167 42.999 -121.5s93.666 -39.5 174.999 -39.5c53.333 0 97.166 9.83301 131.499 29.5s55.166 46.834 62.499 81.501c5.33301 26.667 -7 49 -37 67s-86 36.667 -168 56c-161.333 37.333 -267.666 80 -318.999 128
c-37.333 35.333 -56 82 -56 140c0 22.667 2.66699 46.667 8 72c22.667 109.333 80.167 196 172.5 260s205.833 96 340.5 96c156 0 269.667 -30 341 -90c56.667 -47.333 85 -113 85 -197c0 -20.667 -2 -43.334 -6 -68.001v0h-276z" />
    <glyph glyph-name="t" unicode="t" horiz-adv-x="682" 
d="M631 -8c-46.667 -3.33301 -105.667 -5 -177 -5c-104 0 -173.833 17.5 -209.5 52.5s-44.834 95.167 -27.501 180.5l137 663v0h-149l43 205h149v0l60 293h287l-60 -293v0h173l-43 -205h-173v0l-127 -614c-4.66699 -22.667 0.333008 -39.167 15 -49.5
s40.334 -15.5 77.001 -15.5l69 4z" />
    <glyph glyph-name="u" unicode="u" horiz-adv-x="1251" 
d="M648 1088l-139 -672.001c-14.667 -69.333 -11 -120.666 11 -153.999s63 -50 123 -50c73.333 0 135.333 22.167 186 66.5s84 105.833 100 184.5v0l130 625v0h143h144v0l-225 -1088v0h-139h-139v0l32 159v0v0c-11.333 -16 -25 -32 -41 -48
c-90 -93.333 -199.667 -140 -329 -140c-117.333 0 -202 36.667 -254 110c-33.333 47.333 -50 107.333 -50 180c0 37.333 4.66699 78.333 14 123l146 704v0h143h144v0z" />
    <glyph glyph-name="v" unicode="v" 
d="M258 1088h160h160v0l60 -802v0v0l401 802v0h152h152v0l-617 -1088h-150h-151z" />
    <glyph glyph-name="w" unicode="w" horiz-adv-x="1593" 
d="M329 0l-77 1088v0h151h152v0l4 -794v0v0l328 794h144h144l-3 -791v0v0l336 791v0h149h149v0l-539 -1088h-150h-151l-2 799v0v0l-344 -799h-145h-146z" />
    <glyph glyph-name="x" unicode="x" 
d="M31 0l491 560v0l-248 528v0h174h175v0l117 -316v0v0l247 316v0h169h170v0l-465 -539v0l255 -549v0h-178h-178v0l-118 330v0v0l-262 -330v0h-174h-175v0z" />
    <glyph glyph-name="y" unicode="y" 
d="M1335 1088l-593 -1080c-109.333 -200.667 -194.666 -328 -255.999 -382s-150.333 -81 -267 -81c-52.667 0 -97 2.33301 -133 7l47 228c6 -2.66699 24.667 -4 56 -4c78 0 131.333 15 160 45c19.333 19.333 43.666 62.666 72.999 129.999v0l-172 1137v0h160h160v0l66 -812
v0v0l397 812v0h151h151v0z" />
    <glyph glyph-name="z" unicode="z" horiz-adv-x="1024" 
d="M93 234l686 620l8 7v0h-518v0l25 113l26 114v0h877l-24 -117l-25 -117l-686 -619v0h564v0l-22 -117l-22 -118v0h-941l26 117z" />
    <glyph glyph-name="braceleft" unicode="{" horiz-adv-x="797" 
d="M674 -395c-177.333 -8 -294.332 13.165 -350.999 63.498s-68.667 143.5 -36 279.5l51 250c20.667 88.667 20 152 -2 190s-69.667 57 -143 57l39 192c73.333 0 129 19 167 57s65 101.333 81 190l51 250c24.667 136 75.667 229.167 153 279.5s202.666 71.5 375.999 63.5
l-37 -182c-84 4 -142.667 -5 -176 -27s-56 -66.667 -68 -134l-51 -250c-24.667 -141.333 -71.667 -235.666 -141 -282.999c-42 -28.667 -104.333 -48.667 -187 -60v0c78 -11.333 132 -31.333 162 -60c49.333 -47.333 57.333 -141.666 24 -282.999l-51 -250
c-16 -67.333 -12 -112 12 -134s78.667 -31 164 -27z" />
    <glyph glyph-name="bar" unicode="|" horiz-adv-x="573" 
d="M64 -512l424 2048h234l-424 -2048h-234z" />
    <glyph glyph-name="braceright" unicode="}" horiz-adv-x="797" 
d="M-36 -395l36.999 182.002c84 -4 142.667 5 176 27s56 66.667 68 134l51 250c24 141.333 70.667 235.666 140 282.999c42 28.667 104.667 48.667 188 60v0c-78.667 11.333 -133 31.333 -163 60c-49.333 47.333 -57 141.666 -23 282.999l51 250c16 67.333 12 112 -12 134
s-78.667 31 -164 27l37 182c177.333 8 294.333 -13.167 351 -63.5s68.667 -143.5 36 -279.5l-51 -250c-21.333 -88.667 -21 -152 1 -190s69.667 -57 143 -57l-39 -192c-73.333 0 -129 -19 -167 -57s-64.667 -101.333 -80 -190l-51 -250
c-24.667 -136 -75.667 -229.333 -153 -280c-77.333 -50 -202.666 -71 -375.999 -63z" />
    <glyph glyph-name="asciitilde" unicode="~" horiz-adv-x="1196" 
d="M236 515c36 54 80.665 97.001 133.998 129.001s107.333 48 162 48c32 0 65.833 -6 101.5 -18s81.167 -32.333 136.5 -61c36 -18.667 68.833 -33.5 98.5 -44.5s52.167 -16.5 67.5 -16.5c32.667 0 65.834 12 99.501 36s70.5 61.667 110.5 113l35 -184
c-43.333 -55.333 -90.666 -98.666 -141.999 -129.999s-101 -47 -149 -47c-35.333 0 -71 7 -107 21s-80.667 38 -134 72c-24 15.333 -51.667 27.666 -83 36.999s-61.666 14 -90.999 14c-32 0 -67.833 -14.833 -107.5 -44.5s-71.834 -65.834 -96.501 -108.501z" />
    <glyph glyph-name="uni00A0" unicode="&#xa0;" horiz-adv-x="569" 
 />
    <glyph glyph-name="exclamdown" unicode="&#xa1;" horiz-adv-x="682" 
d="M562 685l-62 -703l-75 -364h-161h-162l75 364l230 703h78v0h77zM659 799h-302l59 289h302z" />
    <glyph glyph-name="cent" unicode="&#xa2;" 
d="M1001 1283h108.997l-92 -190c50.667 -16.667 92 -42.667 124 -78c55.333 -60 83.333 -143.667 84 -251l-3 -58v0h-290v0c-5.33301 60 -18.666 103.667 -39.999 131l-303 -622l34 -3c54 0 103.333 16.5 148 49.5s76.334 76.5 95.001 130.5v0h291v0
c-44.667 -129.333 -120.167 -231.833 -226.5 -307.5s-227.833 -113.5 -364.5 -113.5c-32 0 -62.333 2 -91 6l-107 -219h-109l118 243c-42 17.333 -79 40.333 -111 69c-70 66 -105 158.333 -105 277c-0.666992 26 0.833008 53.833 4.5 83.5s8.5 59.167 14.5 88.5
c40 192 116.833 340.167 230.5 444.5s255.834 156.5 426.501 156.5c30 0.666992 57 -1 81 -5zM504.997 263l300 615.999h-24c-76 0 -139.333 -30.167 -190 -90.5s-88.667 -151.166 -114 -272.499v0l-9 -61c-2 -20 -3.33301 -38.333 -4 -55c0.666992 -60 15 -106.333 43 -139
z" />
    <glyph glyph-name="sterling" unicode="&#xa3;" 
d="M1126 62c-48 -28 -104 -51.5 -168 -70.5s-118.667 -28.5 -164 -28.5c-24.667 0 -57.667 5 -99 15s-80 22.333 -116 37c-26 10.667 -55.333 19.667 -88 27s-59.334 11 -80.001 11c-19.333 0 -52.333 -7.16699 -99 -21.5s-94.334 -32.166 -143.001 -53.499l-67 194
c67.333 35.333 130.833 84.166 190.5 146.499s93.834 115.5 102.501 159.5c8 36.667 9.66699 71 5 103c-1.33301 18.667 -7.33301 43.334 -18 74.001h-190l26 123h128c-20 65.333 -32 116.333 -36 153c-4 44.667 0.666992 98.667 14 162c20 98 88.167 185.333 204.5 262
s238.5 115 366.5 115c160.667 0 274.667 -39.667 342 -119s85 -195.333 53 -348v0h-267v0c8.66699 87.333 0 149 -26 185s-75.333 54 -148 54c-53.333 0 -104.666 -17.833 -153.999 -53.5s-79 -76.5 -89 -122.5c-6.66699 -32.667 -8.5 -62.334 -5.5 -89.001
s12.5 -68.667 28.5 -126l19 -73h272l-26 -123h-226c0.666992 -35.333 -3.66602 -76 -12.999 -122c-16 -76 -75.333 -158.667 -178 -248c-27.333 -23.333 -55 -45 -83 -65l5 1c100 28.667 169.667 43 209 43c25.333 0 50.666 -2 75.999 -6s43.333 -9 54 -15
c17.333 -9.33301 40.333 -17.333 69 -24s55 -10 79 -10c28 0 62 6.83301 102 20.5s75 30.167 105 49.5z" />
    <glyph glyph-name="currency" unicode="&#xa4;" 
d="M934 727c14.667 64.667 6.66797 119.167 -23.999 163.5s-75.334 66.5 -134.001 66.5s-113.334 -22.333 -164.001 -67c-49.333 -44 -81.333 -98.333 -96 -163s-6.66699 -119.167 24 -163.5s75.334 -66.5 134.001 -66.5s113 22.167 163 66.5s82.333 98.833 97 163.5z
M627.001 287c-88 0.666992 -162.334 22 -223.001 64v0l-244 -201l-105 135l244 201v0c-29.333 70.667 -34 151 -14 241s60.667 170.333 122 241v0l-154 201l165 135l155 -202v0c78.667 43.333 162 65 250 65c88 -0.666992 162.333 -22.334 223 -65.001v0l245 202l105 -135
l-245 -202v0c29.333 -69.333 34 -149.333 14 -240c-20.667 -89.333 -61 -169.666 -121 -240.999v0l154 -201l-165 -135l-156 203v0c-77.333 -44 -160.666 -66 -249.999 -66z" />
    <glyph glyph-name="yen" unicode="&#xa5;" 
d="M181 711l25 121h268v0l-193 597v0h157h157v0l162 -602v0l409 602v0h146h146v0l-434 -597v0h264l-25 -121h-327v0l-115 -158v0h409l-25 -121h-411v0l-89 -432v0h-130h-130v0l89 432v0h-411l25 121h411v0l2 8v0l-48 150v0h-332z" />
    <glyph glyph-name="brokenbar" unicode="&#xa6;" horiz-adv-x="573" 
d="M104 -342l140 683h234l-140 -683h-234zM315 682l141 683h234l-141 -683h-234z" />
    <glyph glyph-name="section" unicode="&#xa7;" 
d="M865 1492c137.333 0 236.339 -31.4971 297.006 -94.4971s80 -154.833 58 -275.5v0h-264v0c4 54.667 -4.5 93.167 -25.5 115.5s-59.167 33.5 -114.5 33.5c-34.667 0 -68.334 -11.833 -101.001 -35.5s-52.334 -50.5 -59.001 -80.5c-6 -25.333 7.16699 -51.833 39.5 -79.5
s92.833 -64.834 181.5 -111.501c146 -77.333 239.667 -141.833 281 -193.5s53 -118.834 35 -201.501c-22.667 -100.667 -87 -184.334 -193 -251.001c-23.333 -14.667 -48 -28 -74 -40c19.333 -17.333 34.333 -34 45 -50c40 -56 49.333 -131 28 -225
c-24 -110.667 -83.667 -202.667 -179 -276c-94 -72.667 -200.333 -109 -319 -109c-136.667 0 -236.834 33.167 -300.501 99.5s-88.834 163.166 -75.501 290.499v0h267v0c1.33301 -62 13.833 -105.667 37.5 -131s64.167 -38 121.5 -38c36.667 0 72.334 14 107.001 42
s56 59.667 64 95c6.66699 33.333 -4.33301 65 -33 95s-83.667 67.667 -165 113c-153.333 84 -252 153 -296 207s-56.667 122.333 -38 205c23.333 106.667 88.666 195.334 195.999 266.001l54 32l-14 20c-40.667 54 -51 125.667 -31 215
c23.333 104 79.666 190.667 168.999 260c89.333 68.667 189.666 103 300.999 103zM920.006 492.003c8.66699 38.667 -2.50098 74.3291 -33.501 106.996s-91.167 72.334 -180.5 119.001c-53.333 28.667 -100 55.334 -140 80.001l-8 -4c-54 -35.333 -86 -75.666 -96 -120.999
c-8.66699 -38 4 -74.667 38 -110s100.333 -79.666 199 -132.999c37.333 -20 71 -40 101 -60l28 15c52.667 31.333 83.334 67 92.001 107z" />
    <glyph glyph-name="dieresis" unicode="&#xa8;" horiz-adv-x="682" 
d="M329 1492h258l-48 -235h-258zM731 1492h258l-48 -235h-258z" />
    <glyph glyph-name="copyright" unicode="&#xa9;" horiz-adv-x="1509" 
d="M1056 1506c218.667 0 388.001 -74.833 508.001 -224.5s157.667 -333.167 113 -550.5c-45.333 -217.333 -158.833 -400.833 -340.5 -550.5s-381.834 -224.5 -600.501 -224.5s-388.167 74.833 -508.5 224.5s-157.833 333.167 -112.5 550.5
c44.667 217.333 158 400.833 340 550.5s382.333 224.5 601 224.5v0zM1454 731c34.667 167.333 10.1699 308.666 -73.4971 423.999s-203.834 173 -360.501 173s-300.834 -57.667 -432.501 -173s-214.834 -256.666 -249.501 -423.999s-10 -308.666 74 -423.999
s204 -173 360 -173s300 57.667 432 173s215.333 256.666 250 423.999v0zM1257 620c-38 -98.667 -95.6689 -176.998 -173.002 -234.998s-163 -87 -257 -87c-105.333 0 -189.166 30.333 -251.499 91s-93.5 142 -93.5 244c0 158 50.333 289.5 151 394.5
s226.667 157.5 378 157.5c98 0 172.333 -26.333 223 -79s76 -129.334 76 -230.001v0h-179v0c-4 43.333 -19.167 76.166 -45.5 98.499s-63.5 33.5 -111.5 33.5c-80 0 -145.333 -32 -196 -96s-76 -146.333 -76 -247c0 -61.333 14.667 -108.333 44 -141s71.333 -49 126 -49
c43.333 0 83.333 13.333 120 40s63.334 61.667 80.001 105v0h185z" />
    <glyph glyph-name="ordfeminine" unicode="&#xaa;" horiz-adv-x="758" 
d="M429 823c-54 0 -96.334 12.5 -127.001 37.5s-46 59.5 -46 103.5c0 7.33301 0.5 15.5 1.5 24.5s2.16699 17.5 3.5 25.5c11.333 54.667 38.166 100.667 80.499 138s93.166 60 152.499 68l197 27l24 4c14 2.66699 25.333 8.83398 34 18.501s13.667 22.167 15 37.5
c2 17.333 -6 31 -24 41s-48.333 15 -91 15c-30.667 0 -57.167 -7 -79.5 -21s-40.5 -35 -54.5 -63v0h-175v0c26.667 78 69.334 135.667 128.001 173s136.334 56 233.001 56c92 0 159 -16.333 201 -49c30.667 -24.667 46.334 -58.334 47.001 -101.001l-5 -42l-72 -348
c-6.66699 -32.667 -8.16699 -57.167 -4.5 -73.5s12.5 -26.5 26.5 -30.5v-1l-5 -24h-101h-102v0c-0.666992 20.667 0 46.667 2 78v0c-72 -62.667 -158.333 -94 -259 -94zM719.999 1091l13 61.0029v0l-43 -11l-108 -21c-41.333 -8.66699 -71.5 -19.834 -90.5 -33.501
s-31.167 -33.834 -36.5 -60.501c-1.33301 -6.66699 -2 -13.334 -2 -20.001c0 -18 6 -32.667 18 -44s28 -17 48 -17c66 0 119.333 20 160 60c8 8.66699 16 21 24 37c8 16.667 13.667 33 17 49zM221.999 732.003h616l-34 -163h-616z" />
    <glyph glyph-name="guillemotleft" unicode="&#xab;" 
d="M683 751l-245 -178v0l171 -179l-49 -237l-284 296l25 120l25 120l406 295zM1114 751l-245 -178v0l171 -179l-49 -237l-284 296l25 120l25 120l406 295z" />
    <glyph glyph-name="logicalnot" unicode="&#xac;" horiz-adv-x="1196" 
d="M1019 631h-804l47 226h1030l-131 -634h-226z" />
    <glyph glyph-name="uni00AD" unicode="&#xad;" horiz-adv-x="682" 
d="M205 707h574l-55 -266h-574z" />
    <glyph glyph-name="registered" unicode="&#xae;" horiz-adv-x="1509" 
d="M1054 1506c218.667 0 388.001 -74.833 508.001 -224.5s157.667 -333.167 113 -550.5c-45.333 -217.333 -158.833 -400.833 -340.5 -550.5s-381.834 -224.5 -600.501 -224.5s-388.167 74.833 -508.5 224.5s-157.833 333.167 -112.5 550.5
c44.667 217.333 158 400.833 340 550.5s382.333 224.5 601 224.5v0zM1452 731c34.667 167.333 10.1699 308.666 -73.4971 423.999s-203.834 173 -360.501 173s-300.834 -57.667 -432.501 -173s-214.834 -256.666 -249.501 -423.999s-10 -308.666 74 -423.999
s204 -173 360 -173s300 57.667 432 173s215.333 256.666 250 423.999v0zM504.004 313l174 837v0h89v0h232c92.667 0 163.334 -15.833 212.001 -47.5s73 -76.5 73 -134.5v-3c0 -9.33301 -0.5 -18.833 -1.5 -28.5s-2.16699 -19.167 -3.5 -28.5
c-18.667 -87.333 -56.334 -149 -113.001 -185c-31.333 -20.667 -75 -35 -131 -43v0l134 -367v0h-106h-107v0l-115 356v0h-84v0l-74 -356v0h-89h-90v0zM786.004 808h104c66.667 0 114.5 7.33301 143.5 22s47.5 41 55.5 79c2 9.33301 3 17 3 23c0 28 -14.5 48.333 -43.5 61
s-75.167 19 -138.5 19h-82v0z" />
    <glyph glyph-name="macron" unicode="&#xaf;" horiz-adv-x="682" 
d="M250 1235l32 152h702l-32 -152h-702z" />
    <glyph glyph-name="degree" unicode="&#xb0;" horiz-adv-x="819" 
d="M714 1459c81.333 0 143.499 -28.5 186.499 -85.5s55.5 -126.5 37.5 -208.5c-18.667 -82 -62.334 -151.333 -131.001 -208s-143.667 -85 -225 -85s-143.666 28.333 -186.999 85s-55.666 126 -36.999 208c18 82 61.5 151.5 130.5 208.5s144.167 85.5 225.5 85.5z
M823.999 1165c11.333 50.667 3.83301 93.334 -22.5 128.001s-64.166 52 -113.499 52s-94.833 -17.333 -136.5 -52s-68.167 -77.334 -79.5 -128.001c-11.333 -50 -3.83301 -92.333 22.5 -127s64.166 -52 113.499 -52s94.833 17.333 136.5 52s68.167 77 79.5 127z" />
    <glyph glyph-name="plusminus" unicode="&#xb1;" horiz-adv-x="1196" 
d="M598 554h-402l47 226h402l53 258h226l-53 -258h402l-47 -226h-402l-53 -258h-226zM128 224h1030l-46 -226h-1030z" />
    <glyph glyph-name="uni00B2" unicode="&#xb2;" horiz-adv-x="682" 
d="M918 1227c0 -76.667 -25.667 -143.333 -77 -200c-50 -56.667 -139.667 -119 -269 -187c-59.333 -30.667 -106.333 -62 -141 -94v0h394l-34 -165h-650v0c16.667 80 52 149 106 207s141.333 120.667 262 188c80.667 45.333 136.667 85 168 119s46.666 71 45.999 111
c0 27.333 -9.5 48.5 -28.5 63.5s-45.5 22.5 -79.5 22.5c-43.333 0 -78.166 -12.5 -104.499 -37.5s-44.833 -62.833 -55.5 -113.5v0h-185v0c21.333 98 65.5 174.667 132.5 230s148.5 83 244.5 83c84.667 0 151 -20 199 -60s72 -95.667 72 -167z" />
    <glyph glyph-name="uni00B3" unicode="&#xb3;" horiz-adv-x="682" 
d="M686 1195c2 8.66699 3 17.999 3 27.999c0 24 -8 43 -24 57s-37.667 21 -65 21c-38 0 -69.667 -10.667 -95 -32s-43.333 -52.333 -54 -93v0h-176v0c12 80 52 146.333 120 199s147.333 79 238 79c76 0 137.5 -18 184.5 -54s70.5 -83 70.5 -141
c0 -7.33301 -0.5 -15.5 -1.5 -24.5s-2.16699 -17.167 -3.5 -24.5c-12.667 -62 -51.667 -113 -117 -153l-25 -14v0l26 -14c50 -32 75 -76.667 75 -134c0 -7.33301 -0.5 -15.333 -1.5 -24s-2.16699 -17 -3.5 -25c-18.667 -90.667 -62 -161.667 -130 -213s-153 -77 -255 -77
c-106 0 -180.667 23.5 -224 70.5s-57.333 119.167 -42 216.5v0h186v0c-7.33301 -45.333 -2.83301 -79 13.5 -101s45.5 -33 87.5 -33c46 0 82.333 11 109 33s44.667 56 54 102c2 8.66699 3 16.334 3 23.001c0 27.333 -11.833 48.333 -35.5 63s-57.5 22 -101.5 22h-46l29 140
h33c50.667 0 89.667 8.33301 117 25c26.667 16 43.667 42 51 78z" />
    <glyph glyph-name="acute" unicode="&#xb4;" horiz-adv-x="682" 
d="M483 1238l257 297h313l-361 -297h-209z" />
    <glyph glyph-name="uni00B5" unicode="&#xb5;" horiz-adv-x="1251" 
d="M643 1088l-140 -677.001c-13.333 -63.333 -6.33301 -112.333 21 -147s72.666 -52 135.999 -52c61.333 0 116 20.5 164 61.5s78.667 93.833 92 158.5v0l136 656h287l-225 -1088h-273l31 154v0v0c-12 -17.333 -25.667 -34.666 -41 -51.999
c-78.667 -87.333 -163.667 -131 -255 -131c-69.333 0 -119.666 19.667 -150.999 59h-1l-92 -454h-287l153 750l158 762h287z" />
    <glyph glyph-name="paragraph" unicode="&#xb6;" 
d="M592 709c-122 1.33301 -217.667 27 -287 77s-104 120 -104 210c0 131.333 49.667 237 149 317s230 120 392 120h661v0l-376 -1822h-231l341 1650v0h-204v0l-341 -1650h-226z" />
    <glyph glyph-name="periodcentered" unicode="&#xb7;" horiz-adv-x="569" 
d="M307 856h304l-62 -300h-304z" />
    <glyph glyph-name="cedilla" unicode="&#xb8;" horiz-adv-x="682" 
d="M339 0l-101.001 -110.999v0l60 7c54.667 0 95.667 -14.667 123 -44s36 -68 26 -116c-12 -58 -46.167 -106.333 -102.5 -145s-121.166 -58 -194.499 -58c-40 0 -79 4.66699 -117 14s-74 22.666 -108 39.999l65 96c31.333 -10 60.5 -18 87.5 -24s48.167 -9 63.5 -9
c26.667 0 51 7.66699 73 23s35.333 34.333 40 57c4 20 -0.333008 37.333 -13 52s-29.667 22 -51 22c-8 0 -21 -1.66699 -39 -5s-33.333 -7 -46 -11l-35 41l151 171h118z" />
    <glyph glyph-name="uni00B9" unicode="&#xb9;" horiz-adv-x="682" 
d="M407 581l123 596v0h-227l27 129c56.667 -4 110.667 6.66699 162 32c51.333 26 96 64.667 134 116h168v0l-181 -873v0h-103h-103v0z" />
    <glyph glyph-name="ordmasculine" unicode="&#xba;" horiz-adv-x="748" 
d="M552 823c-92.667 0 -166.332 23 -220.999 69c-53.333 44.667 -80 105.334 -80 182.001v3c-0.666992 12 0 25.667 2 41s4.33301 30 7 44c22 105.333 71.833 189 149.5 251s172.167 93 283.5 93c92.667 0 166.167 -22.833 220.5 -68.5s81.166 -107.5 80.499 -185.5v-3
c0 -12 -0.833008 -25.833 -2.5 -41.5s-4.16699 -30.834 -7.5 -45.501c-21.333 -104 -70.833 -186.5 -148.5 -247.5s-172.167 -91.5 -283.5 -91.5v0zM582.002 967c50.667 0 94 18.167 130 54.5s60.667 86.833 74 151.5c2 9.33301 3.5 18.833 4.5 28.5
s1.83301 18.167 2.5 25.5c-0.666992 40.667 -12.5 73.334 -35.5 98.001s-54.167 37 -93.5 37c-50.667 0 -94.167 -18.5 -130.5 -55.5s-61.5 -88.167 -75.5 -153.5c-1.33301 -8.66699 -2.5 -17.834 -3.5 -27.501s-1.83301 -18.167 -2.5 -25.5
c0 -40 11.833 -72.167 35.5 -96.5s55.167 -36.5 94.5 -36.5v0zM222.002 713h614l-34 -163h-614z" />
    <glyph glyph-name="guillemotright" unicode="&#xbb;" 
d="M262 394l245 178v0l-171 179l49 237l284 -296l-25 -120l-25 -120l-406 -295zM693 394l245 178v0l-171 179l49 237l284 -296l-25 -120l-25 -120l-406 -295z" />
    <glyph glyph-name="onequarter" unicode="&#xbc;" horiz-adv-x="1708" 
d="M1623 1455l-1195 -1499h-158l1195 1499h158zM401 581l123 596v0h-227l27 129c56.667 -4 110.667 6.66699 162 32c51.333 26 96 64.667 134 116h168v0l-181 -873v0h-103h-103v0zM1308 187h-366l19 80l20 81l491 500h96h96l-122 -505v0h107l-37 -156h-107v0l-45 -187h-197
l45 187v0zM1345 343l52 217v0v0l-203 -212l-6 -5v0h157z" />
    <glyph glyph-name="onehalf" unicode="&#xbd;" horiz-adv-x="1708" 
d="M1623 1455l-1195 -1499h-158l1195 1499h158zM401 581l123 596v0h-227l27 129c56.667 -4 110.667 6.66699 162 32c51.333 26 96 64.667 134 116h168v0l-181 -873v0h-103h-103v0zM1758 646c0 -76.667 -25.667 -143.333 -77 -200c-50 -56.667 -139.667 -119 -269 -187
c-59.333 -30.667 -106.333 -62 -141 -94v0h394l-34 -165h-650v0c16.667 80 52 149 106 207s141.333 120.667 262 188c80.667 45.333 136.667 85 168 119s46.666 71 45.999 111c0 27.333 -9.5 48.5 -28.5 63.5s-45.5 22.5 -79.5 22.5c-43.333 0 -78.166 -12.5 -104.499 -37.5
s-44.833 -62.833 -55.5 -113.5v0h-185v0c21.333 98 65.5 174.667 132.5 230s148.5 83 244.5 83c84.667 0 151 -20 199 -60s72 -95.667 72 -167z" />
    <glyph glyph-name="threequarters" unicode="&#xbe;" horiz-adv-x="1708" 
d="M1705 1455l-1195 -1499h-158l1195 1499h158zM703 1195c2 8.66699 3 17.999 3 27.999c0 24 -8 43 -24 57s-37.667 21 -65 21c-38 0 -69.667 -10.667 -95 -32s-43.333 -52.333 -54 -93v0h-176v0c12 80 52 146.333 120 199s147.333 79 238 79c76 0 137.5 -18 184.5 -54
s70.5 -83 70.5 -141c0 -7.33301 -0.5 -15.5 -1.5 -24.5s-2.16699 -17.167 -3.5 -24.5c-12.667 -62 -51.667 -113 -117 -153l-25 -14v0l26 -14c50 -32 75 -76.667 75 -134c0 -7.33301 -0.5 -15.333 -1.5 -24s-2.16699 -17 -3.5 -25c-18.667 -90.667 -62 -161.667 -130 -213
s-153 -77 -255 -77c-106 0 -180.667 23.5 -224 70.5s-57.333 119.167 -42 216.5v0h186v0c-7.33301 -45.333 -2.83301 -79 13.5 -101s45.5 -33 87.5 -33c46 0 82.333 11 109 33s44.667 56 54 102c2 8.66699 3 16.334 3 23.001c0 27.333 -11.833 48.333 -35.5 63
s-57.5 22 -101.5 22h-46l29 140h33c50.667 0 89.667 8.33301 117 25c26.667 16 43.667 42 51 78zM1350 186.999h-366l19 80l20 81l491 500h96h96l-122 -505v0h107l-37 -156h-107v0l-45 -187h-197l45 187v0zM1387 342.999l52 217v0v0l-203 -212l-6 -5v0h157z" />
    <glyph glyph-name="questiondown" unicode="&#xbf;" horiz-adv-x="1251" 
d="M588 -156c60.667 0 113.001 20.332 157.001 60.999s80 101.667 108 183v0h284v0c-34 -143.333 -106.833 -260.5 -218.5 -351.5s-238.5 -136.5 -380.5 -136.5c-162.667 0 -281.834 39.5 -357.501 118.5s-99.5 188.5 -71.5 328.5c14.667 70 47.167 131.333 97.5 184
s142.833 123 277.5 211c30.667 20.667 58.334 51.334 83.001 92.001s40.667 83 48 127h262c-17.333 -98.667 -48 -180.167 -92 -244.5s-109.667 -123.166 -197 -176.499c-45.333 -28 -85 -60 -119 -96c-32.667 -36 -52 -68.333 -58 -97
c-12 -62.667 -2.33301 -112.334 29 -149.001c31.333 -36 80.666 -54 147.999 -54zM921.001 805.999h-290l60 286h290z" />
    <glyph glyph-name="Agrave" unicode="&#xc0;" horiz-adv-x="1479" 
d="M41 0l841 1470h177h177l206 -1470v0h-167h-168v0l-34 308v0h-543v0l-164 -308v0h-162h-163v0zM983 1146l-320 -595v0h386v0l-66 595v0v0zM1010 1620l-239 299h316l129 -299h-206z" />
    <glyph glyph-name="Aacute" unicode="&#xc1;" horiz-adv-x="1479" 
d="M41 0l841 1470h177h177l206 -1470v0h-167h-168v0l-34 308v0h-543v0l-164 -308v0h-162h-163v0zM983 1146l-320 -595v0h386v0l-66 595v0v0zM984 1620l256 297h313l-360 -297h-209z" />
    <glyph glyph-name="Acircumflex" unicode="&#xc2;" horiz-adv-x="1479" 
d="M41 0l841 1470h177h177l206 -1470v0h-167h-168v0l-34 308v0h-543v0l-164 -308v0h-162h-163v0zM983 1146l-320 -595v0h386v0l-66 595v0v0zM1290 1919l168 -299h-229l-95 167v0l-164 -167h-234l300 299h127h127z" />
    <glyph glyph-name="Atilde" unicode="&#xc3;" horiz-adv-x="1479" 
d="M41 0l841 1470h177h177l206 -1470v0h-167h-168v0l-34 308v0h-543v0l-164 -308v0h-162h-163v0zM983 1146l-320 -595v0h386v0l-66 595v0v0zM732 1635c28.667 76 70.0049 136.333 124.005 181s112.333 67 175 67c17.333 0 40.666 -4.16699 69.999 -12.5
s56.666 -18.5 81.999 -30.5c19.333 -8.66699 39.5 -16.167 60.5 -22.5s37.167 -9.5 48.5 -9.5c22.667 0 45.167 8.16699 67.5 24.5s38.166 36.5 47.499 60.5h130c-26.667 -78 -64.167 -138.833 -112.5 -182.5s-101.833 -65.5 -160.5 -65.5
c-20.667 0 -48.334 4.16699 -83.001 12.5s-66.334 18.5 -95.001 30.5c-22.667 8.66699 -44.5 16.167 -65.5 22.5s-35.833 9.5 -44.5 9.5c-22 0 -44 -8.16699 -66 -24.5s-38 -36.5 -48 -60.5h-130z" />
    <glyph glyph-name="Adieresis" unicode="&#xc4;" horiz-adv-x="1479" 
d="M41 0l841 1470h177h177l206 -1470v0h-167h-168v0l-34 308v0h-543v0l-164 -308v0h-162h-163v0zM983 1146l-320 -595v0h386v0l-66 595v0v0zM812 1874h258l-49 -235h-258zM1214 1874h258l-49 -235h-258z" />
    <glyph glyph-name="Aring" unicode="&#xc5;" horiz-adv-x="1479" 
d="M41 0l841 1470h177h177l206 -1470v0h-167h-168v0l-34 308v0h-543v0l-164 -308v0h-162h-163v0zM983 1146l-320 -595v0h386v0l-66 595v0v0zM1076 1548c-62 0 -110.332 20.667 -144.999 62s-45.667 91.666 -33 150.999c12 59.333 43.667 109.666 95 150.999s108 62 170 62
s110 -20.667 144 -62s45 -91.666 33 -150.999c-12.667 -59.333 -44.334 -109.666 -95.001 -150.999s-107 -62 -169 -62v0zM1098 1662c30 0 57.334 9.5 82.001 28.5s40 42.5 46 70.5c5.33301 28 -0.333984 51.5 -17.001 70.5s-40 28.5 -70 28.5s-57.333 -9.5 -82 -28.5
s-39.667 -42.5 -45 -70.5c-6 -28 -0.666992 -51.5 16 -70.5s40 -28.5 70 -28.5v0z" />
    <glyph glyph-name="AE" unicode="&#xc6;" horiz-adv-x="2048" 
d="M884 0l66 319v0h-444v0l-174 -319v0h-161h-161v0l844 1470v0h633v0h752v0l-25 -131l-25 -131v0h-756v0l-64 -305v0h678l-27 -131l-27 -131v0h-678v0l-78 -379v0h767v0l-29 -131l-29 -131v0h-763v0h-299zM996 1208l-355 -646v0h359v0l134 646h-138v0z" />
    <glyph glyph-name="Ccedilla" unicode="&#xc7;" horiz-adv-x="1479" 
d="M1498 500c-57.333 -164.667 -151.497 -295.334 -282.497 -392.001s-279.5 -145 -445.5 -145c-172 0 -306.833 47.167 -404.5 141.5s-146.5 225.166 -146.5 392.499c0.666992 33.333 3.16699 70.5 7.5 111.5s10.833 81.5 19.5 121.5c49.333 238 148.5 427 297.5 567
s326.167 210 531.5 210c186.667 0 325.334 -44.333 416.001 -133c81.333 -79.333 122 -190.666 122 -333.999l-2 -55v0h-307v0c-4.66699 95.333 -27.334 162.5 -68.001 201.5s-108 58.5 -202 58.5c-114 0 -213.667 -46.333 -299 -139s-144.333 -217.667 -177 -375
c-6.66699 -30.667 -11.667 -61.667 -15 -93s-5 -59.666 -5 -84.999c0 -102.667 25.167 -183 75.5 -241s120.166 -87 209.499 -87c81.333 0 155.666 25.167 222.999 75.5s115.666 116.833 144.999 199.5v0h307zM782.003 0l-101.001 -110.999v0l60 7
c54.667 0 95.667 -14.667 123 -44s36 -68 26 -116c-12 -58 -46.167 -106.333 -102.5 -145s-121.166 -58 -194.499 -58c-40 0 -79 4.66699 -117 14s-74 22.666 -108 39.999l65 96c30.667 -10 59.5 -18 86.5 -24s48.5 -9 64.5 -9c26.667 0 51 7.66699 73 23
s35.333 34.333 40 57c4 20 -0.333008 37.333 -13 52s-29.667 22 -51 22c-8 0 -21 -1.66699 -39 -5s-33.333 -7 -46 -11l-35 41l151 171h118z" />
    <glyph glyph-name="Egrave" unicode="&#xc8;" horiz-adv-x="1366" 
d="M156 0l304 1470v0h1085v0l-25 -131l-25 -131v0h-783v0l-64 -305v0h723l-27 -131l-27 -131v0h-723v0l-78 -379v0h817v0l-29 -131l-29 -131v0h-1119zM944 1620l-239 299h316l129 -299h-206z" />
    <glyph glyph-name="Eacute" unicode="&#xc9;" horiz-adv-x="1366" 
d="M156 0l304 1470v0h1085v0l-25 -131l-25 -131v0h-783v0l-64 -305v0h723l-27 -131l-27 -131v0h-723v0l-78 -379v0h817v0l-29 -131l-29 -131v0h-1119zM918 1620l256 297h313l-360 -297h-209z" />
    <glyph glyph-name="Ecircumflex" unicode="&#xca;" horiz-adv-x="1366" 
d="M156 0l304 1470v0h1085v0l-25 -131l-25 -131v0h-783v0l-64 -305v0h723l-27 -131l-27 -131v0h-723v0l-78 -379v0h817v0l-29 -131l-29 -131v0h-1119zM1224 1919l168 -299h-229l-95 167v0l-164 -167h-234l300 299h127h127z" />
    <glyph glyph-name="Edieresis" unicode="&#xcb;" horiz-adv-x="1366" 
d="M156 0l304 1470v0h1085v0l-25 -131l-25 -131v0h-783v0l-64 -305v0h723l-27 -131l-27 -131v0h-723v0l-78 -379v0h817v0l-29 -131l-29 -131v0h-1119zM746 1874h258l-49 -235h-258zM1148 1874h258l-49 -235h-258z" />
    <glyph glyph-name="Igrave" unicode="&#xcc;" horiz-adv-x="569" 
d="M131 0l304 1470v0h153h153v0l-304 -1470v0h-153h-153v0zM539 1620l-239 299h316l129 -299h-206z" />
    <glyph glyph-name="Iacute" unicode="&#xcd;" horiz-adv-x="569" 
d="M131 0l304 1470v0h153h153v0l-304 -1470v0h-153h-153v0zM513 1620l256 297h313l-360 -297h-209z" />
    <glyph glyph-name="Icircumflex" unicode="&#xce;" horiz-adv-x="569" 
d="M131 0l304 1470v0h153h153v0l-304 -1470v0h-153h-153v0zM819 1919l168 -299h-229l-95 167v0l-164 -167h-234l300 299h127h127z" />
    <glyph glyph-name="Idieresis" unicode="&#xcf;" horiz-adv-x="569" 
d="M131 0l304 1470v0h153h153v0l-304 -1470v0h-153h-153v0zM341 1874h258l-49 -235h-258zM743 1874h258l-49 -235h-258z" />
    <glyph glyph-name="Eth" unicode="&#xd0;" horiz-adv-x="1479" 
d="M159 0l132.998 644.999v0h-165l53 256h165v0l118 569v0h153v0h372c196 0 344.5 -41.333 445.5 -124s151.5 -204.334 151.5 -365.001c-0.666992 -33.333 -3 -68.666 -7 -105.999s-10 -75.666 -18 -114.999c-57.333 -273.333 -150.166 -468.333 -278.499 -585
s-315.166 -175 -560.499 -175h-409v0h-153zM716.998 1221l-65.998 -320v0h332l-53 -256h-332v0l-83 -401v0h256c133.333 0 235.166 33.333 305.499 100s121.833 178 154.5 334c9.33301 46 16.166 87.667 20.499 125s6.83301 73 7.5 107c0 106.667 -26 185.167 -78 235.5
s-133.667 75.5 -245 75.5h-219z" />
    <glyph glyph-name="Ntilde" unicode="&#xd1;" horiz-adv-x="1479" 
d="M427 0h-143h-143v0l304 1470v0h162h162v0l378 -1041v0v0l216 1041v0h143h143v0l-304 -1470h-152h-153l-395 1057v0v0zM720 1635c28.667 76 70.0049 136.333 124.005 181s112.333 67 175 67c17.333 0 40.666 -4.16699 69.999 -12.5s56.666 -18.5 81.999 -30.5
c19.333 -8.66699 39.5 -16.167 60.5 -22.5s37.167 -9.5 48.5 -9.5c22.667 0 45.167 8.16699 67.5 24.5s38.166 36.5 47.499 60.5h130c-26.667 -78 -64.167 -138.833 -112.5 -182.5s-101.833 -65.5 -160.5 -65.5c-20.667 0 -48.334 4.16699 -83.001 12.5
s-66.334 18.5 -95.001 30.5c-22.667 8.66699 -44.5 16.167 -65.5 22.5s-35.833 9.5 -44.5 9.5c-22 0 -44 -8.16699 -66 -24.5s-38 -36.5 -48 -60.5h-130z" />
    <glyph glyph-name="Ograve" unicode="&#xd2;" horiz-adv-x="1593" 
d="M793 -37c-179.333 0 -319.831 47.668 -421.498 143.001s-152.5 227.666 -152.5 396.999c0 33.333 2.16699 70 6.5 110s10.5 79 18.5 117c49.333 238 152 427 308 567s342.667 210 560 210c179.333 0 319.666 -48.167 420.999 -144.5s152 -229.833 152 -400.5
c-0.666992 -33.333 -3.16699 -70.5 -7.5 -111.5s-10.5 -81.167 -18.5 -120.5c-48.667 -235.333 -151.334 -422 -308.001 -560c-155.333 -138 -341.333 -207 -558 -207v0zM845.002 220.001c121.333 0 227.166 46.001 317.499 138.001s151.833 216.333 184.5 373
c6 29.333 10.667 59.666 14 90.999s5.33301 60 6 86c0 107.333 -27.333 191.166 -82 251.499s-130.334 90.5 -227.001 90.5c-121.333 0 -227.166 -46.667 -317.499 -140s-151.833 -219.666 -184.5 -378.999c-6 -30 -10.833 -60.333 -14.5 -91s-5.5 -58 -5.5 -82
c0 -106 27.333 -188.833 82 -248.5s130.334 -89.5 227.001 -89.5v0zM1055 1620l-239 299h316l129 -299h-206z" />
    <glyph glyph-name="Oacute" unicode="&#xd3;" horiz-adv-x="1593" 
d="M793 -37c-179.333 0 -319.831 47.668 -421.498 143.001s-152.5 227.666 -152.5 396.999c0 33.333 2.16699 70 6.5 110s10.5 79 18.5 117c49.333 238 152 427 308 567s342.667 210 560 210c179.333 0 319.666 -48.167 420.999 -144.5s152 -229.833 152 -400.5
c-0.666992 -33.333 -3.16699 -70.5 -7.5 -111.5s-10.5 -81.167 -18.5 -120.5c-48.667 -235.333 -151.334 -422 -308.001 -560c-155.333 -138 -341.333 -207 -558 -207v0zM845.002 220.001c121.333 0 227.166 46.001 317.499 138.001s151.833 216.333 184.5 373
c6 29.333 10.667 59.666 14 90.999s5.33301 60 6 86c0 107.333 -27.333 191.166 -82 251.499s-130.334 90.5 -227.001 90.5c-121.333 0 -227.166 -46.667 -317.499 -140s-151.833 -219.666 -184.5 -378.999c-6 -30 -10.833 -60.333 -14.5 -91s-5.5 -58 -5.5 -82
c0 -106 27.333 -188.833 82 -248.5s130.334 -89.5 227.001 -89.5v0zM1029 1620l256 297h313l-360 -297h-209z" />
    <glyph glyph-name="Ocircumflex" unicode="&#xd4;" horiz-adv-x="1593" 
d="M793 -37c-179.333 0 -319.831 47.668 -421.498 143.001s-152.5 227.666 -152.5 396.999c0 33.333 2.16699 70 6.5 110s10.5 79 18.5 117c49.333 238 152 427 308 567s342.667 210 560 210c179.333 0 319.666 -48.167 420.999 -144.5s152 -229.833 152 -400.5
c-0.666992 -33.333 -3.16699 -70.5 -7.5 -111.5s-10.5 -81.167 -18.5 -120.5c-48.667 -235.333 -151.334 -422 -308.001 -560c-155.333 -138 -341.333 -207 -558 -207v0zM845.002 220.001c121.333 0 227.166 46.001 317.499 138.001s151.833 216.333 184.5 373
c6 29.333 10.667 59.666 14 90.999s5.33301 60 6 86c0 107.333 -27.333 191.166 -82 251.499s-130.334 90.5 -227.001 90.5c-121.333 0 -227.166 -46.667 -317.499 -140s-151.833 -219.666 -184.5 -378.999c-6 -30 -10.833 -60.333 -14.5 -91s-5.5 -58 -5.5 -82
c0 -106 27.333 -188.833 82 -248.5s130.334 -89.5 227.001 -89.5v0zM1335 1919l168 -299h-229l-95 167v0l-164 -167h-234l300 299h127h127z" />
    <glyph glyph-name="Otilde" unicode="&#xd5;" horiz-adv-x="1593" 
d="M793 -37c-179.333 0 -319.831 47.668 -421.498 143.001s-152.5 227.666 -152.5 396.999c0 33.333 2.16699 70 6.5 110s10.5 79 18.5 117c49.333 238 152 427 308 567s342.667 210 560 210c179.333 0 319.666 -48.167 420.999 -144.5s152 -229.833 152 -400.5
c-0.666992 -33.333 -3.16699 -70.5 -7.5 -111.5s-10.5 -81.167 -18.5 -120.5c-48.667 -235.333 -151.334 -422 -308.001 -560c-155.333 -138 -341.333 -207 -558 -207v0zM845.002 220.001c121.333 0 227.166 46.001 317.499 138.001s151.833 216.333 184.5 373
c6 29.333 10.667 59.666 14 90.999s5.33301 60 6 86c0 107.333 -27.333 191.166 -82 251.499s-130.334 90.5 -227.001 90.5c-121.333 0 -227.166 -46.667 -317.499 -140s-151.833 -219.666 -184.5 -378.999c-6 -30 -10.833 -60.333 -14.5 -91s-5.5 -58 -5.5 -82
c0 -106 27.333 -188.833 82 -248.5s130.334 -89.5 227.001 -89.5v0zM777.002 1635c28.667 76 70.0049 136.333 124.005 181s112.333 67 175 67c17.333 0 40.666 -4.16699 69.999 -12.5s56.666 -18.5 81.999 -30.5c19.333 -8.66699 39.5 -16.167 60.5 -22.5
s37.167 -9.5 48.5 -9.5c22.667 0 45.167 8.16699 67.5 24.5s38.166 36.5 47.499 60.5h130c-26.667 -78 -64.167 -138.833 -112.5 -182.5s-101.833 -65.5 -160.5 -65.5c-20.667 0 -48.334 4.16699 -83.001 12.5s-66.334 18.5 -95.001 30.5
c-22.667 8.66699 -44.5 16.167 -65.5 22.5s-35.833 9.5 -44.5 9.5c-22 0 -44 -8.16699 -66 -24.5s-38 -36.5 -48 -60.5h-130z" />
    <glyph glyph-name="Odieresis" unicode="&#xd6;" horiz-adv-x="1593" 
d="M793 -37c-179.333 0 -319.831 47.668 -421.498 143.001s-152.5 227.666 -152.5 396.999c0 33.333 2.16699 70 6.5 110s10.5 79 18.5 117c49.333 238 152 427 308 567s342.667 210 560 210c179.333 0 319.666 -48.167 420.999 -144.5s152 -229.833 152 -400.5
c-0.666992 -33.333 -3.16699 -70.5 -7.5 -111.5s-10.5 -81.167 -18.5 -120.5c-48.667 -235.333 -151.334 -422 -308.001 -560c-155.333 -138 -341.333 -207 -558 -207v0zM845.002 220.001c121.333 0 227.166 46.001 317.499 138.001s151.833 216.333 184.5 373
c6 29.333 10.667 59.666 14 90.999s5.33301 60 6 86c0 107.333 -27.333 191.166 -82 251.499s-130.334 90.5 -227.001 90.5c-121.333 0 -227.166 -46.667 -317.499 -140s-151.833 -219.666 -184.5 -378.999c-6 -30 -10.833 -60.333 -14.5 -91s-5.5 -58 -5.5 -82
c0 -106 27.333 -188.833 82 -248.5s130.334 -89.5 227.001 -89.5v0zM857.002 1874h258l-49 -235h-258zM1259 1874h258l-49 -235h-258z" />
    <glyph glyph-name="multiply" unicode="&#xd7;" horiz-adv-x="1196" 
d="M673 358l-429 -356l-127 160l430 355l-283 355l193 160l281 -356l429 356l127 -160l-429 -355l282 -355l-193 -160z" />
    <glyph glyph-name="Oslash" unicode="&#xd8;" horiz-adv-x="1593" 
d="M938 653l-346 -306c8 -13.333 17.667 -26 29 -38c54.667 -59.333 130.334 -89 227.001 -89v0c121.333 0 227.166 46 317.499 138s151.833 216.333 184.5 373c6 29.333 10.667 59.666 14 90.999s5.33301 60 6 86c-0.666992 42.667 -4.66699 81.334 -12 116.001zM796 -37
c-179.333 0 -320.331 47.668 -422.998 143.001l-26 24l-203 -181l-72 72l218 193c-46 79.333 -68.667 175.666 -68 288.999c0 33.333 2.16699 70 6.5 110s10.5 79 18.5 117c49.333 238 152 427 308 567s342.667 210 560 210c179.333 0 319.666 -48.333 420.999 -145l25 -23
l205 182l72 -72l-218 -193c45.333 -80.667 68 -178.667 68 -294c-0.666992 -33.333 -3.16699 -70.5 -7.5 -111.5s-10.5 -81.167 -18.5 -120.5c-48.667 -235.333 -151.334 -422 -308.001 -560c-155.333 -138 -341.333 -207 -558 -207v0zM1061 1250
c-121.333 0 -227.166 -46.667 -317.499 -140s-151.833 -219.666 -184.5 -378.999c-6 -30 -10.833 -60.333 -14.5 -91s-5.5 -58 -5.5 -82c0 -40.667 4 -78.334 12 -113.001l421 372l344 305c-8 14 -17.333 26.667 -28 38c-54.667 60 -130.334 90 -227.001 90z" />
    <glyph glyph-name="Ugrave" unicode="&#xd9;" horiz-adv-x="1479" 
d="M1434 484c-34.667 -166.667 -113.667 -295.333 -237 -386c-122 -90 -279.333 -135 -472 -135c-181.333 0 -314.333 46 -399 138c-58.667 65.333 -88 148.333 -88 249c0 41.333 5 86 15 134l204 986v0h156h156v0l-202 -976c-6 -27.333 -8.66699 -52.333 -8 -75
c-0.666992 -50 11.666 -91 36.999 -123c36.667 -47.333 96.334 -71 179.001 -71c95.333 0 173.5 23.333 234.5 70s100.5 113 118.5 199l202 976v0h154h154v0zM999 1620l-239 299h316l129 -299h-206z" />
    <glyph glyph-name="Uacute" unicode="&#xda;" horiz-adv-x="1479" 
d="M1434 484c-34.667 -166.667 -113.667 -295.333 -237 -386c-122 -90 -279.333 -135 -472 -135c-181.333 0 -314.333 46 -399 138c-58.667 65.333 -88 148.333 -88 249c0 41.333 5 86 15 134l204 986v0h156h156v0l-202 -976c-6 -27.333 -8.66699 -52.333 -8 -75
c-0.666992 -50 11.666 -91 36.999 -123c36.667 -47.333 96.334 -71 179.001 -71c95.333 0 173.5 23.333 234.5 70s100.5 113 118.5 199l202 976v0h154h154v0zM973 1620l256 297h313l-360 -297h-209z" />
    <glyph glyph-name="Ucircumflex" unicode="&#xdb;" horiz-adv-x="1479" 
d="M1434 484c-34.667 -166.667 -113.667 -295.333 -237 -386c-122 -90 -279.333 -135 -472 -135c-181.333 0 -314.333 46 -399 138c-58.667 65.333 -88 148.333 -88 249c0 41.333 5 86 15 134l204 986v0h156h156v0l-202 -976c-6 -27.333 -8.66699 -52.333 -8 -75
c-0.666992 -50 11.666 -91 36.999 -123c36.667 -47.333 96.334 -71 179.001 -71c95.333 0 173.5 23.333 234.5 70s100.5 113 118.5 199l202 976v0h154h154v0zM1279 1919l168 -299h-229l-95 167v0l-164 -167h-234l300 299h127h127z" />
    <glyph glyph-name="Udieresis" unicode="&#xdc;" horiz-adv-x="1479" 
d="M1434 484c-34.667 -166.667 -113.667 -295.333 -237 -386c-122 -90 -279.333 -135 -472 -135c-181.333 0 -314.333 46 -399 138c-58.667 65.333 -88 148.333 -88 249c0 41.333 5 86 15 134l204 986v0h156h156v0l-202 -976c-6 -27.333 -8.66699 -52.333 -8 -75
c-0.666992 -50 11.666 -91 36.999 -123c36.667 -47.333 96.334 -71 179.001 -71c95.333 0 173.5 23.333 234.5 70s100.5 113 118.5 199l202 976v0h154h154v0zM801 1874h258l-49 -235h-258zM1203 1874h258l-49 -235h-258z" />
    <glyph glyph-name="Yacute" unicode="&#xdd;" horiz-adv-x="1366" 
d="M652 556l-308 914v0h181h181v0l167 -634v0l424 634v0h173h174v0l-686 -913v0l-115 -557h-153h-153zM919 1620l256 297h313l-360 -297h-209z" />
    <glyph glyph-name="Thorn" unicode="&#xde;" horiz-adv-x="1366" 
d="M156 0l304 1470v0h153h153v0l-42 -200v0l372 1c117.333 0 209 -29.833 275 -89.5s99 -142.5 99 -248.5c-0.666992 -20 -2.16699 -41.833 -4.5 -65.5s-5.83301 -46.834 -10.5 -69.501c-30 -143.333 -94.833 -257 -194.5 -341s-219.5 -126 -359.5 -126l-371 -1v0l-68 -330
v0h-153h-153v0zM1143 799.001c2.66699 12.667 4.66602 24.832 5.99902 36.499s2 22.167 2 31.5c0 50 -16 88 -48 114s-79.333 39 -142 39h-288v0l-91 -438v0h288c74.667 0 135.334 18.667 182.001 56c46 36.667 76.333 90.334 91 161.001z" />
    <glyph glyph-name="germandbls" unicode="&#xdf;" horiz-adv-x="1251" 
d="M643 1040l-214.997 -1040v0h-143h-144v0l215 1040l9 42c26.667 131.333 91 234 193 308s229.667 111 383 111c156 0 267.333 -34.667 334 -104s86.334 -170.666 59.001 -303.999c-20 -95.333 -86 -179.666 -198 -252.999c28 -14 52 -29.667 72 -47
c83.333 -72.667 109.333 -185 78 -337c-30 -145.333 -101.5 -262.5 -214.5 -351.5s-247.167 -133.5 -402.5 -133.5c-16.667 0 -33.667 1.16699 -51 3.5s-34.666 5.5 -51.999 9.5v0l49 227v0c44.667 -2.66699 69 -4 73 -4c77.333 0 144.666 23.5 201.999 70.5
s94 109.167 110 186.5c17.333 85.333 4.66602 147.833 -38.001 187.5s-119.334 59.5 -230.001 59.5l41 200c87.333 0 151.666 13.333 192.999 40s68.666 72.334 81.999 137.001c12 58.667 4.33301 103.167 -23 133.5s-73.333 45.5 -138 45.5
c-70.667 0 -125 -17.333 -163 -52c-37.333 -34.667 -64.333 -93 -81 -175z" />
    <glyph glyph-name="agrave" unicode="&#xe0;" 
d="M400 -29c-89.333 0 -159.499 21.168 -210.499 63.501s-76.5 101.166 -76.5 176.499c0 12 0.833008 25.667 2.5 41s4.16699 30.333 7.5 45c18.667 90.667 63.334 166.667 134.001 228s157.334 99 260.001 113l242 34c22.667 3.33301 44 9 64 17
c25.333 10 44.666 24.5 57.999 43.5s19.666 41.167 18.999 66.5c-0.666992 26.667 -9.66699 47 -27 61c-24.667 19.333 -69.334 29 -134.001 29c-49.333 0 -91.333 -12.833 -126 -38.5s-61.667 -63.834 -81 -114.501v0h-271v0c28 124.667 89.333 219.334 184 284.001
s219 97 373 97c140.667 0 242.334 -27.333 305.001 -82c46.667 -40 69.667 -94 69 -162c0.666992 -23.333 -2 -48.333 -8 -75l-123 -593c-10 -48 -13 -84.833 -9 -110.5s15.667 -43.5 35 -53.5v-1l-8 -39h-155h-155v0c-4.66699 42.667 -4 85 2 127v0
c-112.667 -104.667 -236.334 -157 -371.001 -157zM820.001 396.001l27 132v0c-27.333 -15.333 -57.333 -26.666 -90 -33.999l-116 -23c-76 -15.333 -130.5 -34.666 -163.5 -57.999s-54.167 -57.333 -63.5 -102c-1.33301 -6.66699 -1.33301 -6.66699 0 0
c-1.33301 -6.66699 -2.33301 -13.334 -3 -20.001s-1 -13 -1 -19c0 -30.667 9.83301 -54.334 29.5 -71.001s47.167 -25 82.5 -25c90.667 0 171 36 241 108c12 12 23.333 28.667 34 50c11.333 22 19 42.667 23 62zM745.001 1238l-239 299h316l129 -299h-206z" />
    <glyph glyph-name="aacute" unicode="&#xe1;" 
d="M400 -29c-89.333 0 -159.499 21.168 -210.499 63.501s-76.5 101.166 -76.5 176.499c0 12 0.833008 25.667 2.5 41s4.16699 30.333 7.5 45c18.667 90.667 63.334 166.667 134.001 228s157.334 99 260.001 113l242 34c22.667 3.33301 44 9 64 17
c25.333 10 44.666 24.5 57.999 43.5s19.666 41.167 18.999 66.5c-0.666992 26.667 -9.66699 47 -27 61c-24.667 19.333 -69.334 29 -134.001 29c-49.333 0 -91.333 -12.833 -126 -38.5s-61.667 -63.834 -81 -114.501v0h-271v0c28 124.667 89.333 219.334 184 284.001
s219 97 373 97c140.667 0 242.334 -27.333 305.001 -82c46.667 -40 69.667 -94 69 -162c0.666992 -23.333 -2 -48.333 -8 -75l-123 -593c-10 -48 -13 -84.833 -9 -110.5s15.667 -43.5 35 -53.5v-1l-8 -39h-155h-155v0c-4.66699 42.667 -4 85 2 127v0
c-112.667 -104.667 -236.334 -157 -371.001 -157zM820.001 396.001l27 132v0c-27.333 -15.333 -57.333 -26.666 -90 -33.999l-116 -23c-76 -15.333 -130.5 -34.666 -163.5 -57.999s-54.167 -57.333 -63.5 -102c-1.33301 -6.66699 -1.33301 -6.66699 0 0
c-1.33301 -6.66699 -2.33301 -13.334 -3 -20.001s-1 -13 -1 -19c0 -30.667 9.83301 -54.334 29.5 -71.001s47.167 -25 82.5 -25c90.667 0 171 36 241 108c12 12 23.333 28.667 34 50c11.333 22 19 42.667 23 62zM707.001 1238l256 297h313l-360 -297h-209z" />
    <glyph glyph-name="acircumflex" unicode="&#xe2;" 
d="M400 -29c-89.333 0 -159.499 21.168 -210.499 63.501s-76.5 101.166 -76.5 176.499c0 12 0.833008 25.667 2.5 41s4.16699 30.333 7.5 45c18.667 90.667 63.334 166.667 134.001 228s157.334 99 260.001 113l242 34c22.667 3.33301 44 9 64 17
c25.333 10 44.666 24.5 57.999 43.5s19.666 41.167 18.999 66.5c-0.666992 26.667 -9.66699 47 -27 61c-24.667 19.333 -69.334 29 -134.001 29c-49.333 0 -91.333 -12.833 -126 -38.5s-61.667 -63.834 -81 -114.501v0h-271v0c28 124.667 89.333 219.334 184 284.001
s219 97 373 97c140.667 0 242.334 -27.333 305.001 -82c46.667 -40 69.667 -94 69 -162c0.666992 -23.333 -2 -48.333 -8 -75l-123 -593c-10 -48 -13 -84.833 -9 -110.5s15.667 -43.5 35 -53.5v-1l-8 -39h-155h-155v0c-4.66699 42.667 -4 85 2 127v0
c-112.667 -104.667 -236.334 -157 -371.001 -157zM820.001 396.001l27 132v0c-27.333 -15.333 -57.333 -26.666 -90 -33.999l-116 -23c-76 -15.333 -130.5 -34.666 -163.5 -57.999s-54.167 -57.333 -63.5 -102c-1.33301 -6.66699 -1.33301 -6.66699 0 0
c-1.33301 -6.66699 -2.33301 -13.334 -3 -20.001s-1 -13 -1 -19c0 -30.667 9.83301 -54.334 29.5 -71.001s47.167 -25 82.5 -25c90.667 0 171 36 241 108c12 12 23.333 28.667 34 50c11.333 22 19 42.667 23 62zM1018 1537l168 -299h-229l-95 167v0l-164 -167h-234l300 299
h127h127z" />
    <glyph glyph-name="atilde" unicode="&#xe3;" 
d="M400 -29c-89.333 0 -159.499 21.168 -210.499 63.501s-76.5 101.166 -76.5 176.499c0 12 0.833008 25.667 2.5 41s4.16699 30.333 7.5 45c18.667 90.667 63.334 166.667 134.001 228s157.334 99 260.001 113l242 34c22.667 3.33301 44 9 64 17
c25.333 10 44.666 24.5 57.999 43.5s19.666 41.167 18.999 66.5c-0.666992 26.667 -9.66699 47 -27 61c-24.667 19.333 -69.334 29 -134.001 29c-49.333 0 -91.333 -12.833 -126 -38.5s-61.667 -63.834 -81 -114.501v0h-271v0c28 124.667 89.333 219.334 184 284.001
s219 97 373 97c140.667 0 242.334 -27.333 305.001 -82c46.667 -40 69.667 -94 69 -162c0.666992 -23.333 -2 -48.333 -8 -75l-123 -593c-10 -48 -13 -84.833 -9 -110.5s15.667 -43.5 35 -53.5v-1l-8 -39h-155h-155v0c-4.66699 42.667 -4 85 2 127v0
c-112.667 -104.667 -236.334 -157 -371.001 -157zM820.001 396.001l27 132v0c-27.333 -15.333 -57.333 -26.666 -90 -33.999l-116 -23c-76 -15.333 -130.5 -34.666 -163.5 -57.999s-54.167 -57.333 -63.5 -102c-1.33301 -6.66699 -1.33301 -6.66699 0 0
c-1.33301 -6.66699 -2.33301 -13.334 -3 -20.001s-1 -13 -1 -19c0 -30.667 9.83301 -54.334 29.5 -71.001s47.167 -25 82.5 -25c90.667 0 171 36 241 108c12 12 23.333 28.667 34 50c11.333 22 19 42.667 23 62zM467.001 1253c28.667 76 70.0049 136.333 124.005 181
s112.333 67 175 67c17.333 0 40.666 -4.16699 69.999 -12.5s56.666 -18.5 81.999 -30.5c19.333 -8.66699 39.5 -16.167 60.5 -22.5s37.167 -9.5 48.5 -9.5c22.667 0 45.167 8.16699 67.5 24.5s38.166 36.5 47.499 60.5h130c-26.667 -78 -64.167 -138.833 -112.5 -182.5
s-101.833 -65.5 -160.5 -65.5c-20.667 0 -48.334 4.16699 -83.001 12.5s-66.334 18.5 -95.001 30.5c-22.667 8.66699 -44.5 16.167 -65.5 22.5s-35.833 9.5 -44.5 9.5c-22 0 -44 -8.16699 -66 -24.5s-38 -36.5 -48 -60.5h-130z" />
    <glyph glyph-name="adieresis" unicode="&#xe4;" 
d="M400 -29c-89.333 0 -159.499 21.168 -210.499 63.501s-76.5 101.166 -76.5 176.499c0 12 0.833008 25.667 2.5 41s4.16699 30.333 7.5 45c18.667 90.667 63.334 166.667 134.001 228s157.334 99 260.001 113l242 34c22.667 3.33301 44 9 64 17
c25.333 10 44.666 24.5 57.999 43.5s19.666 41.167 18.999 66.5c-0.666992 26.667 -9.66699 47 -27 61c-24.667 19.333 -69.334 29 -134.001 29c-49.333 0 -91.333 -12.833 -126 -38.5s-61.667 -63.834 -81 -114.501v0h-271v0c28 124.667 89.333 219.334 184 284.001
s219 97 373 97c140.667 0 242.334 -27.333 305.001 -82c46.667 -40 69.667 -94 69 -162c0.666992 -23.333 -2 -48.333 -8 -75l-123 -593c-10 -48 -13 -84.833 -9 -110.5s15.667 -43.5 35 -53.5v-1l-8 -39h-155h-155v0c-4.66699 42.667 -4 85 2 127v0
c-112.667 -104.667 -236.334 -157 -371.001 -157zM820.001 396.001l27 132v0c-27.333 -15.333 -57.333 -26.666 -90 -33.999l-116 -23c-76 -15.333 -130.5 -34.666 -163.5 -57.999s-54.167 -57.333 -63.5 -102c-1.33301 -6.66699 -1.33301 -6.66699 0 0
c-1.33301 -6.66699 -2.33301 -13.334 -3 -20.001s-1 -13 -1 -19c0 -30.667 9.83301 -54.334 29.5 -71.001s47.167 -25 82.5 -25c90.667 0 171 36 241 108c12 12 23.333 28.667 34 50c11.333 22 19 42.667 23 62zM567.001 1492h258l-49 -235h-258zM969.001 1492h258l-49 -235
h-258z" />
    <glyph glyph-name="aring" unicode="&#xe5;" 
d="M400 -29c-89.333 0 -159.499 21.168 -210.499 63.501s-76.5 101.166 -76.5 176.499c0 12 0.833008 25.667 2.5 41s4.16699 30.333 7.5 45c18.667 90.667 63.334 166.667 134.001 228s157.334 99 260.001 113l242 34c22.667 3.33301 44 9 64 17
c25.333 10 44.666 24.5 57.999 43.5s19.666 41.167 18.999 66.5c-0.666992 26.667 -9.66699 47 -27 61c-24.667 19.333 -69.334 29 -134.001 29c-49.333 0 -91.333 -12.833 -126 -38.5s-61.667 -63.834 -81 -114.501v0h-271v0c28 124.667 89.333 219.334 184 284.001
s219 97 373 97c140.667 0 242.334 -27.333 305.001 -82c46.667 -40 69.667 -94 69 -162c0.666992 -23.333 -2 -48.333 -8 -75l-123 -593c-10 -48 -13 -84.833 -9 -110.5s15.667 -43.5 35 -53.5v-1l-8 -39h-155h-155v0c-4.66699 42.667 -4 85 2 127v0
c-112.667 -104.667 -236.334 -157 -371.001 -157zM820.001 396.001l27 132v0c-27.333 -15.333 -57.333 -26.666 -90 -33.999l-116 -23c-76 -15.333 -130.5 -34.666 -163.5 -57.999s-54.167 -57.333 -63.5 -102c-1.33301 -6.66699 -1.33301 -6.66699 0 0
c-1.33301 -6.66699 -2.33301 -13.334 -3 -20.001s-1 -13 -1 -19c0 -30.667 9.83301 -54.334 29.5 -71.001s47.167 -25 82.5 -25c90.667 0 171 36 241 108c12 12 23.333 28.667 34 50c11.333 22 19 42.667 23 62zM824.001 1166c-62 0 -110.332 20.667 -144.999 62
s-45.667 91.666 -33 150.999c12 59.333 43.667 109.666 95 150.999s108 62 170 62s110 -20.667 144 -62s45 -91.666 33 -150.999c-12.667 -59.333 -44.334 -109.666 -95.001 -150.999s-107 -62 -169 -62v0zM846.002 1280c30 0 57.334 9.5 82.001 28.5s40 42.5 46 70.5
c5.33301 28 -0.333984 51.5 -17.001 70.5s-40 28.5 -70 28.5s-57.333 -9.5 -82 -28.5s-39.667 -42.5 -45 -70.5c-6 -28 -0.666992 -51.5 16 -70.5s40 -28.5 70 -28.5v0z" />
    <glyph glyph-name="ae" unicode="&#xe6;" horiz-adv-x="1821" 
d="M806 1117c136.667 0 235.333 -27.335 296 -82.002c11.333 -10 21.333 -21 30 -33v0c100 76.667 217.333 115 352 115c130 0 228.333 -32.667 295 -98s100 -160.666 100 -285.999v-4c0.666992 -32 -1.33301 -66.833 -6 -104.5s-11.334 -77.167 -20.001 -118.5l-7 -35v0
h-744v0l-2 -14c-2.66699 -20.667 -4 -40 -4 -58c0.666992 -66 17.5 -115.333 50.5 -148s83.167 -49 150.5 -49c48.667 0 92.834 10.5 132.501 31.5s67.834 48.5 84.501 82.5v0h290v0c-52.667 -110.667 -129.334 -196 -230.001 -256c-99.333 -59.333 -215 -89 -347 -89
c-123.333 0 -218 32 -284 96c-22.667 22.667 -41 48 -55 76v0l-7 -5c-125.333 -111.333 -269 -167 -431 -167c-110 0 -193.333 20 -250 60s-85 98 -85 174v3c0 12.667 0.833008 26.5 2.5 41.5s4.16699 30.5 7.5 46.5c17.333 84.667 56.333 155.5 117 212.5
s134 92.167 220 105.5l294 46c34 5.33301 65.333 12.333 94 21c16 5.33301 29.667 14.833 41 28.5s19 30.5 23 50.5l1 6c9.33301 43.333 0.833008 74.666 -25.5 93.999s-73.833 29 -142.5 29c-56 0 -100.5 -11.667 -133.5 -35s-59.833 -62.666 -80.5 -117.999v0h-271v0
c28 124.667 88.167 219.334 180.5 284.001s213.5 97 363.5 97zM838.999 397.998l24.001 115.999v0c-30.667 -12.667 -66.334 -23 -107.001 -31l-117 -23c-80 -16 -135.333 -34.333 -166 -55c-29.333 -20 -48.666 -52.667 -57.999 -98c-2 -10.667 -3 -20.667 -3 -30
c0 -30 10.833 -54.333 32.5 -73s50.167 -28 85.5 -28c92 0 173.333 35 244 105l19 21c9.33301 10 18.333 24.333 27 43c9.33301 18.667 15.666 36.334 18.999 53.001zM1592 657.997l1 38.001c0 62.667 -14.667 109.167 -44 139.5s-74.333 45.5 -135 45.5
c-76.667 0 -140 -29.667 -190 -89c-29.333 -34.667 -54.333 -79.334 -75 -134.001v0h443z" />
    <glyph glyph-name="ccedilla" unicode="&#xe7;" 
d="M1157 397c-46 -130.667 -121.834 -234.332 -227.501 -310.999s-226.167 -115 -361.5 -115c-130.667 0 -231 32.667 -301 98s-105 159.666 -105 282.999c0 28 1.83301 58.167 5.5 90.5s8.83398 64.833 15.501 97.5c37.333 180.667 112.5 322 225.5 424
s251.167 153 414.5 153c139.333 0 244 -36.667 314 -110c58 -60 86.667 -140 86 -240l-4 -67v0h-290v0c-2.66699 62 -16.334 106.833 -41.001 134.5s-63 41.5 -115 41.5c-74.667 0 -136.5 -29.167 -185.5 -87.5s-85.833 -145.833 -110.5 -262.5
c-4 -22 -7.33301 -44.167 -10 -66.5s-4 -42.833 -4 -61.5c0 -60.667 13.333 -107.667 40 -141s64.334 -50 113.001 -50c55.333 0 106 17.5 152 52.5s79 80.833 99 137.5v0h290zM612.999 0.00195312l-101.001 -110.999v0l60 7c54.667 0 95.667 -14.667 123 -44
s36 -68 26 -116c-12 -58 -46.167 -106.333 -102.5 -145s-121.166 -58 -194.499 -58c-40 0 -79 4.66699 -117 14s-74 22.666 -108 39.999l65 96c31.333 -10 60.5 -18 87.5 -24s48.167 -9 63.5 -9c26.667 0 51 7.66699 73 23s35.333 34.333 40 57
c4 20 -0.333008 37.333 -13 52s-29.667 22 -51 22c-8 0 -21 -1.66699 -39 -5s-33.333 -7 -46 -11l-35 41l151 171h118z" />
    <glyph glyph-name="egrave" unicode="&#xe8;" 
d="M583 -29c-142 0 -250.831 33.499 -326.498 100.499s-113.5 163.5 -113.5 289.5c0.666992 26.667 2.66699 55.334 6 86.001s8 61.667 14 93c37.333 180.667 112.166 322 224.499 424s249.5 153 411.5 153c136.667 0 240 -33.333 310 -100s105 -164.667 105 -294
c0 -32 -2 -66.333 -6 -103s-10.333 -74.667 -19 -114l-7 -35v0h-746v0l-2 -14c-2.66699 -20 -4 -39 -4 -57c0.666992 -66 17.667 -115.5 51 -148.5s83.666 -49.5 150.999 -49.5c48.667 0 93 10.5 133 31.5s68.333 48.5 85 82.5v0h290v0
c-50.667 -106 -126.167 -190 -226.5 -252s-210.5 -93 -330.5 -93zM928.002 657.999l1.00195 38.001c0 62.667 -14.833 109.167 -44.5 139.5s-74.834 45.5 -135.501 45.5c-76.667 0 -140.334 -29.667 -191.001 -89c-29.333 -34.667 -54.333 -79.334 -75 -134.001v0h445z
M765.004 1238l-239 299h316l129 -299h-206z" />
    <glyph glyph-name="eacute" unicode="&#xe9;" 
d="M583 -29c-142 0 -250.831 33.499 -326.498 100.499s-113.5 163.5 -113.5 289.5c0.666992 26.667 2.66699 55.334 6 86.001s8 61.667 14 93c37.333 180.667 112.166 322 224.499 424s249.5 153 411.5 153c136.667 0 240 -33.333 310 -100s105 -164.667 105 -294
c0 -32 -2 -66.333 -6 -103s-10.333 -74.667 -19 -114l-7 -35v0h-746v0l-2 -14c-2.66699 -20 -4 -39 -4 -57c0.666992 -66 17.667 -115.5 51 -148.5s83.666 -49.5 150.999 -49.5c48.667 0 93 10.5 133 31.5s68.333 48.5 85 82.5v0h290v0
c-50.667 -106 -126.167 -190 -226.5 -252s-210.5 -93 -330.5 -93zM928.002 657.999l1.00195 38.001c0 62.667 -14.833 109.167 -44.5 139.5s-74.834 45.5 -135.501 45.5c-76.667 0 -140.334 -29.667 -191.001 -89c-29.333 -34.667 -54.333 -79.334 -75 -134.001v0h445z
M727.004 1238l256 297h313l-360 -297h-209z" />
    <glyph glyph-name="ecircumflex" unicode="&#xea;" 
d="M583 -29c-142 0 -250.831 33.499 -326.498 100.499s-113.5 163.5 -113.5 289.5c0.666992 26.667 2.66699 55.334 6 86.001s8 61.667 14 93c37.333 180.667 112.166 322 224.499 424s249.5 153 411.5 153c136.667 0 240 -33.333 310 -100s105 -164.667 105 -294
c0 -32 -2 -66.333 -6 -103s-10.333 -74.667 -19 -114l-7 -35v0h-746v0l-2 -14c-2.66699 -20 -4 -39 -4 -57c0.666992 -66 17.667 -115.5 51 -148.5s83.666 -49.5 150.999 -49.5c48.667 0 93 10.5 133 31.5s68.333 48.5 85 82.5v0h290v0
c-50.667 -106 -126.167 -190 -226.5 -252s-210.5 -93 -330.5 -93zM928.002 657.999l1.00195 38.001c0 62.667 -14.833 109.167 -44.5 139.5s-74.834 45.5 -135.501 45.5c-76.667 0 -140.334 -29.667 -191.001 -89c-29.333 -34.667 -54.333 -79.334 -75 -134.001v0h445z
M1038 1537l168 -299h-229l-95 167v0l-164 -167h-234l300 299h127h127z" />
    <glyph glyph-name="edieresis" unicode="&#xeb;" 
d="M583 -29c-142 0 -250.831 33.499 -326.498 100.499s-113.5 163.5 -113.5 289.5c0.666992 26.667 2.66699 55.334 6 86.001s8 61.667 14 93c37.333 180.667 112.166 322 224.499 424s249.5 153 411.5 153c136.667 0 240 -33.333 310 -100s105 -164.667 105 -294
c0 -32 -2 -66.333 -6 -103s-10.333 -74.667 -19 -114l-7 -35v0h-746v0l-2 -14c-2.66699 -20 -4 -39 -4 -57c0.666992 -66 17.667 -115.5 51 -148.5s83.666 -49.5 150.999 -49.5c48.667 0 93 10.5 133 31.5s68.333 48.5 85 82.5v0h290v0
c-50.667 -106 -126.167 -190 -226.5 -252s-210.5 -93 -330.5 -93zM928.002 657.999l1.00195 38.001c0 62.667 -14.833 109.167 -44.5 139.5s-74.834 45.5 -135.501 45.5c-76.667 0 -140.334 -29.667 -191.001 -89c-29.333 -34.667 -54.333 -79.334 -75 -134.001v0h445z
M587.004 1492h258l-49 -235h-258zM989.004 1492h258l-49 -235h-258z" />
    <glyph glyph-name="igrave" unicode="&#xec;" horiz-adv-x="569" 
d="M141 0l225 1088v0h143h144v0l-225 -1088v0h-143h-144v0zM460 1238l-239 299h316l129 -299h-206z" />
    <glyph glyph-name="iacute" unicode="&#xed;" horiz-adv-x="569" 
d="M141 0l225 1088v0h143h144v0l-225 -1088v0h-143h-144v0zM422 1238l256 297h313l-360 -297h-209z" />
    <glyph glyph-name="icircumflex" unicode="&#xee;" horiz-adv-x="569" 
d="M141 0l225 1088v0h143h144v0l-225 -1088v0h-143h-144v0zM733 1537l168 -299h-229l-95 167v0l-164 -167h-234l300 299h127h127z" />
    <glyph glyph-name="idieresis" unicode="&#xef;" horiz-adv-x="569" 
d="M141 0l225 1088v0h143h144v0l-225 -1088v0h-143h-144v0zM282 1492h258l-49 -235h-258zM684 1492h258l-49 -235h-258z" />
    <glyph glyph-name="eth" unicode="&#xf0;" horiz-adv-x="1251" 
d="M629 -29c-142 0 -254.333 36.332 -337 108.999s-124 171.667 -124 297c0 20.667 1.33301 43.834 4 69.501s6.33398 50.167 11.001 73.5c35.333 170.667 109.5 306 222.5 406s248.5 150 406.5 150c89.333 0.666992 161.333 -30.666 216 -93.999v0
c-8.66699 28 -19 54.667 -31 80c-25.333 52.667 -57.333 103 -96 151l-247 -96l-104 104l245 96c-38.667 33.333 -82.334 65 -131.001 95l239 102c50 -30.667 96 -64.334 138 -101.001l244 95l104 -104l-247 -96c48.667 -58 89 -122 121 -192c50 -110 75 -222.333 75 -337
c0 -57.333 -6 -115 -18 -173c-40 -194.667 -122.167 -349.167 -246.5 -463.5s-272.5 -171.5 -444.5 -171.5zM477 504.999c-2.66699 -14 -5.00391 -28.6689 -7.00391 -44.002s-3 -29 -3 -41c0.666992 -64 19.834 -114.667 57.501 -152s88.834 -56 153.501 -56
c80.667 0 150.834 29.333 210.501 88s99.834 137.667 120.501 237c2.66699 14.667 5 29.834 7 45.501s3 29.5 3 41.5c0 64.667 -19.167 116 -57.5 154s-89.833 57 -154.5 57c-84 0 -154.333 -28.667 -211 -86c-57.333 -57.333 -97 -138.666 -119 -243.999z" />
    <glyph glyph-name="ntilde" unicode="&#xf1;" horiz-adv-x="1251" 
d="M133 0l225 1088v0h139h139v0l-32 -156v0v0l40 45c90.667 93.333 200.667 140 330 140c117.333 0 202.333 -33.167 255 -99.5s66.667 -158.166 42 -275.499l-153 -742v0h-143h-144v0l139 672c14 69.333 10 120.666 -12 153.999s-63 50 -123 50
c-73.333 0 -135.333 -22.167 -186 -66.5s-84 -105.833 -100 -184.5v0l-129 -625v0h-143h-144v0zM523 1253c28.667 76 70.0049 136.333 124.005 181s112.333 67 175 67c17.333 0 40.666 -4.16699 69.999 -12.5s56.666 -18.5 81.999 -30.5
c19.333 -8.66699 39.5 -16.167 60.5 -22.5s37.167 -9.5 48.5 -9.5c22.667 0 45.167 8.16699 67.5 24.5s38.166 36.5 47.499 60.5h130c-26.667 -78 -64.167 -138.833 -112.5 -182.5s-101.833 -65.5 -160.5 -65.5c-20.667 0 -48.334 4.16699 -83.001 12.5
s-66.334 18.5 -95.001 30.5c-22.667 8.66699 -44.5 16.167 -65.5 22.5s-35.833 9.5 -44.5 9.5c-22 0 -44 -8.16699 -66 -24.5s-38 -36.5 -48 -60.5h-130z" />
    <glyph glyph-name="ograve" unicode="&#xf2;" horiz-adv-x="1251" 
d="M625 -29c-140.667 0 -251.834 37.166 -333.501 111.499s-122.834 175.5 -123.501 303.5c0 22 1.5 46.833 4.5 74.5s7.16699 54.167 12.5 79.5c36.667 176.667 115.834 317 237.501 421s268.167 156 439.5 156c140.667 0 251.834 -37.667 333.501 -113
s122.5 -177.666 122.5 -306.999c0 -22.667 -1.66699 -48 -5 -76s-7.66602 -55 -12.999 -81c-36 -174.667 -114.833 -313.167 -236.5 -415.5s-267.834 -153.5 -438.501 -153.5v0zM674 211.999c87.333 0 158.665 28.666 213.998 85.999s95 143.666 119 258.999
c4 18.667 7 37.334 9 56.001s3 35.667 3 51c0 67.333 -18 119.5 -54 156.5s-87 55.5 -153 55.5c-86.667 0 -157.667 -29.167 -213 -87.5s-95.333 -146.166 -120 -263.499c-3.33301 -18 -6.16602 -36 -8.49902 -54s-3.16602 -34.667 -2.49902 -50
c0 -66.667 17.833 -118.167 53.5 -154.5s86.5 -54.5 152.5 -54.5v0zM806.999 1238l-239 299h316l129 -299h-206z" />
    <glyph glyph-name="oacute" unicode="&#xf3;" horiz-adv-x="1251" 
d="M625 -29c-140.667 0 -251.834 37.166 -333.501 111.499s-122.834 175.5 -123.501 303.5c0 22 1.5 46.833 4.5 74.5s7.16699 54.167 12.5 79.5c36.667 176.667 115.834 317 237.501 421s268.167 156 439.5 156c140.667 0 251.834 -37.667 333.501 -113
s122.5 -177.666 122.5 -306.999c0 -22.667 -1.66699 -48 -5 -76s-7.66602 -55 -12.999 -81c-36 -174.667 -114.833 -313.167 -236.5 -415.5s-267.834 -153.5 -438.501 -153.5v0zM674 211.999c87.333 0 158.665 28.666 213.998 85.999s95 143.666 119 258.999
c4 18.667 7 37.334 9 56.001s3 35.667 3 51c0 67.333 -18 119.5 -54 156.5s-87 55.5 -153 55.5c-86.667 0 -157.667 -29.167 -213 -87.5s-95.333 -146.166 -120 -263.499c-3.33301 -18 -6.16602 -36 -8.49902 -54s-3.16602 -34.667 -2.49902 -50
c0 -66.667 17.833 -118.167 53.5 -154.5s86.5 -54.5 152.5 -54.5v0zM768.999 1238l256 297h313l-360 -297h-209z" />
    <glyph glyph-name="ocircumflex" unicode="&#xf4;" horiz-adv-x="1251" 
d="M625 -29c-140.667 0 -251.834 37.166 -333.501 111.499s-122.834 175.5 -123.501 303.5c0 22 1.5 46.833 4.5 74.5s7.16699 54.167 12.5 79.5c36.667 176.667 115.834 317 237.501 421s268.167 156 439.5 156c140.667 0 251.834 -37.667 333.501 -113
s122.5 -177.666 122.5 -306.999c0 -22.667 -1.66699 -48 -5 -76s-7.66602 -55 -12.999 -81c-36 -174.667 -114.833 -313.167 -236.5 -415.5s-267.834 -153.5 -438.501 -153.5v0zM674 211.999c87.333 0 158.665 28.666 213.998 85.999s95 143.666 119 258.999
c4 18.667 7 37.334 9 56.001s3 35.667 3 51c0 67.333 -18 119.5 -54 156.5s-87 55.5 -153 55.5c-86.667 0 -157.667 -29.167 -213 -87.5s-95.333 -146.166 -120 -263.499c-3.33301 -18 -6.16602 -36 -8.49902 -54s-3.16602 -34.667 -2.49902 -50
c0 -66.667 17.833 -118.167 53.5 -154.5s86.5 -54.5 152.5 -54.5v0zM1080 1537l168 -299h-229l-95 167v0l-164 -167h-234l300 299h127h127z" />
    <glyph glyph-name="otilde" unicode="&#xf5;" horiz-adv-x="1251" 
d="M625 -29c-140.667 0 -251.834 37.166 -333.501 111.499s-122.834 175.5 -123.501 303.5c0 22 1.5 46.833 4.5 74.5s7.16699 54.167 12.5 79.5c36.667 176.667 115.834 317 237.501 421s268.167 156 439.5 156c140.667 0 251.834 -37.667 333.501 -113
s122.5 -177.666 122.5 -306.999c0 -22.667 -1.66699 -48 -5 -76s-7.66602 -55 -12.999 -81c-36 -174.667 -114.833 -313.167 -236.5 -415.5s-267.834 -153.5 -438.501 -153.5v0zM674 211.999c87.333 0 158.665 28.666 213.998 85.999s95 143.666 119 258.999
c4 18.667 7 37.334 9 56.001s3 35.667 3 51c0 67.333 -18 119.5 -54 156.5s-87 55.5 -153 55.5c-86.667 0 -157.667 -29.167 -213 -87.5s-95.333 -146.166 -120 -263.499c-3.33301 -18 -6.16602 -36 -8.49902 -54s-3.16602 -34.667 -2.49902 -50
c0 -66.667 17.833 -118.167 53.5 -154.5s86.5 -54.5 152.5 -54.5v0zM528.999 1253c28.667 76 70.0049 136.333 124.005 181s112.333 67 175 67c17.333 0 40.666 -4.16699 69.999 -12.5s56.666 -18.5 81.999 -30.5c19.333 -8.66699 39.5 -16.167 60.5 -22.5
s37.167 -9.5 48.5 -9.5c22.667 0 45.167 8.16699 67.5 24.5s38.166 36.5 47.499 60.5h130c-26.667 -78 -64.167 -138.833 -112.5 -182.5s-101.833 -65.5 -160.5 -65.5c-20.667 0 -48.334 4.16699 -83.001 12.5s-66.334 18.5 -95.001 30.5
c-22.667 8.66699 -44.5 16.167 -65.5 22.5s-35.833 9.5 -44.5 9.5c-22 0 -44 -8.16699 -66 -24.5s-38 -36.5 -48 -60.5h-130z" />
    <glyph glyph-name="odieresis" unicode="&#xf6;" horiz-adv-x="1251" 
d="M625 -29c-140.667 0 -251.834 37.166 -333.501 111.499s-122.834 175.5 -123.501 303.5c0 22 1.5 46.833 4.5 74.5s7.16699 54.167 12.5 79.5c36.667 176.667 115.834 317 237.501 421s268.167 156 439.5 156c140.667 0 251.834 -37.667 333.501 -113
s122.5 -177.666 122.5 -306.999c0 -22.667 -1.66699 -48 -5 -76s-7.66602 -55 -12.999 -81c-36 -174.667 -114.833 -313.167 -236.5 -415.5s-267.834 -153.5 -438.501 -153.5v0zM674 211.999c87.333 0 158.665 28.666 213.998 85.999s95 143.666 119 258.999
c4 18.667 7 37.334 9 56.001s3 35.667 3 51c0 67.333 -18 119.5 -54 156.5s-87 55.5 -153 55.5c-86.667 0 -157.667 -29.167 -213 -87.5s-95.333 -146.166 -120 -263.499c-3.33301 -18 -6.16602 -36 -8.49902 -54s-3.16602 -34.667 -2.49902 -50
c0 -66.667 17.833 -118.167 53.5 -154.5s86.5 -54.5 152.5 -54.5v0zM628.999 1492h258l-49 -235h-258zM1031 1492h258l-49 -235h-258z" />
    <glyph glyph-name="divide" unicode="&#xf7;" horiz-adv-x="1196" 
d="M656 274c50.667 0 89.833 -17.5 117.5 -52.5s36.5 -77.833 26.5 -128.5c-10.667 -50.667 -37 -93.5 -79 -128.5s-88.333 -52.5 -139 -52.5s-90 17.5 -118 52.5s-36.667 77.833 -26 128.5c10 50.667 36.167 93.5 78.5 128.5s88.833 52.5 139.5 52.5zM214.999 630h1030
l-47 -226h-1030zM831.999 1122c50.667 0 89.834 -17.5 117.501 -52.5s36.167 -77.833 25.5 -128.5c-10 -50.667 -36.167 -93.5 -78.5 -128.5s-88.833 -52.5 -139.5 -52.5s-89.834 17.5 -117.501 52.5s-36.5 77.833 -26.5 128.5c10.667 50.667 37.167 93.5 79.5 128.5
s88.833 52.5 139.5 52.5z" />
    <glyph glyph-name="oslash" unicode="&#xf8;" horiz-adv-x="1251" 
d="M733 475l-222.998 -188.999c3.33301 -7.33301 8.66602 -14 15.999 -20c35.333 -36 86 -54 152 -54v0c87.333 0 158.666 28.667 213.999 86s95 143.666 119 258.999c4 18.667 7 37.334 9 56.001s3 35.667 3 51c0.666992 19.333 -1 36.666 -5 51.999zM629.002 -28.999
c-140.667 0 -252.001 37.333 -334.001 112l-12 11l-174 -148l-64 57l186 157c-39.333 62.667 -59 138 -59 226c0 22 1.5 46.833 4.5 74.5s7.16699 54.167 12.5 79.5c36.667 176.667 115.834 317 237.501 421s268.167 156 439.5 156c140.667 0 251.667 -37.667 333 -113
l14 -13l178 151l57 -62l-183 -155c37.333 -63.333 56.333 -139.333 57 -228c0 -22.667 -1.66699 -48 -5 -76s-7.66602 -55 -12.999 -81c-36 -174.667 -114.833 -313.167 -236.5 -415.5s-267.834 -153.5 -438.501 -153.5v0zM816.001 876.001
c-86.667 0 -157.669 -29.168 -213.002 -87.501s-95.333 -146.166 -120 -263.499c-3.33301 -18 -6.16602 -36 -8.49902 -54s-3.33301 -35.667 -3 -53s1.83301 -34.333 4.5 -51l284 241l225 190c-3.33301 10 -8.66602 17.667 -15.999 23c-36 36.667 -87 55 -153 55z" />
    <glyph glyph-name="ugrave" unicode="&#xf9;" horiz-adv-x="1251" 
d="M648 1088l-139 -672.001c-14.667 -69.333 -11 -120.666 11 -153.999s63 -50 123 -50c73.333 0 135.333 22.167 186 66.5s84 105.833 100 184.5v0l130 625v0h143h144v0l-225 -1088v0h-139h-139v0l32 159v0v0c-11.333 -16 -25 -32 -41 -48
c-90 -93.333 -199.667 -140 -329 -140c-117.333 0 -202 36.667 -254 110c-33.333 47.333 -50 107.333 -50 180c0 37.333 4.66699 78.333 14 123l146 704v0h143h144v0zM804 1238l-239 299h316l129 -299h-206z" />
    <glyph glyph-name="uacute" unicode="&#xfa;" horiz-adv-x="1251" 
d="M648 1088l-139 -672.001c-14.667 -69.333 -11 -120.666 11 -153.999s63 -50 123 -50c73.333 0 135.333 22.167 186 66.5s84 105.833 100 184.5v0l130 625v0h143h144v0l-225 -1088v0h-139h-139v0l32 159v0v0c-11.333 -16 -25 -32 -41 -48
c-90 -93.333 -199.667 -140 -329 -140c-117.333 0 -202 36.667 -254 110c-33.333 47.333 -50 107.333 -50 180c0 37.333 4.66699 78.333 14 123l146 704v0h143h144v0zM766 1238l256 297h313l-360 -297h-209z" />
    <glyph glyph-name="ucircumflex" unicode="&#xfb;" horiz-adv-x="1251" 
d="M648 1088l-139 -672.001c-14.667 -69.333 -11 -120.666 11 -153.999s63 -50 123 -50c73.333 0 135.333 22.167 186 66.5s84 105.833 100 184.5v0l130 625v0h143h144v0l-225 -1088v0h-139h-139v0l32 159v0v0c-11.333 -16 -25 -32 -41 -48
c-90 -93.333 -199.667 -140 -329 -140c-117.333 0 -202 36.667 -254 110c-33.333 47.333 -50 107.333 -50 180c0 37.333 4.66699 78.333 14 123l146 704v0h143h144v0zM1077 1537l168 -299h-229l-95 167v0l-164 -167h-234l300 299h127h127z" />
    <glyph glyph-name="udieresis" unicode="&#xfc;" horiz-adv-x="1251" 
d="M648 1088l-139 -672.001c-14.667 -69.333 -11 -120.666 11 -153.999s63 -50 123 -50c73.333 0 135.333 22.167 186 66.5s84 105.833 100 184.5v0l130 625v0h143h144v0l-225 -1088v0h-139h-139v0l32 159v0v0c-11.333 -16 -25 -32 -41 -48
c-90 -93.333 -199.667 -140 -329 -140c-117.333 0 -202 36.667 -254 110c-33.333 47.333 -50 107.333 -50 180c0 37.333 4.66699 78.333 14 123l146 704v0h143h144v0zM626 1492h258l-49 -235h-258zM1028 1492h258l-49 -235h-258z" />
    <glyph glyph-name="yacute" unicode="&#xfd;" 
d="M1335 1088l-593 -1080c-109.333 -200.667 -194.666 -328 -255.999 -382s-150.333 -81 -267 -81c-52.667 0 -97 2.33301 -133 7l47 228c6 -2.66699 24.667 -4 56 -4c78 0 131.333 15 160 45c19.333 19.333 43.666 62.666 72.999 129.999v0l-172 1137v0h160h160v0l66 -812
v0v0l397 812v0h151h151v0zM705 1238l256 297h313l-360 -297h-209z" />
    <glyph glyph-name="thorn" unicode="&#xfe;" horiz-adv-x="1251" 
d="M429 1470l143.002 -0.000976562h144v0l-107 -516l1 1c108 108 226.667 162 356 162c110.667 0 197.167 -33.833 259.5 -101.5s93.5 -161.167 93.5 -280.5c-0.666992 -27.333 -2.83398 -58.166 -6.50098 -92.499s-8.83398 -67.833 -15.501 -100.5
c-34 -164 -102.5 -300.167 -205.5 -408.5s-215.167 -162.5 -336.5 -162.5c-143.333 0 -245.333 51.333 -306 154l-9 15v0l-116 -566v0h-143h-144v0zM689.002 206.999c72.667 0 137.331 29.667 193.998 89s95 137.666 115 234.999c4.66699 21.333 8.33398 42.833 11.001 64.5
s3.66699 41.834 3 60.501c0 67.333 -16.167 119.5 -48.5 156.5s-78.166 55.5 -137.499 55.5c-70.667 0 -134.667 -29.667 -192 -89s-95.333 -135.333 -114 -228v0h1v0c-23.333 -110 -20.333 -194.833 9 -254.5s82.333 -89.5 159 -89.5z" />
    <glyph glyph-name="ydieresis" unicode="&#xff;" 
d="M1335 1088l-593 -1080c-109.333 -200.667 -194.666 -328 -255.999 -382s-150.333 -81 -267 -81c-52.667 0 -97 2.33301 -133 7l47 228c6 -2.66699 24.667 -4 56 -4c78 0 131.333 15 160 45c19.333 19.333 43.666 62.666 72.999 129.999v0l-172 1137v0h160h160v0l66 -812
v0v0l397 812v0h151h151v0zM565 1492h258l-49 -235h-258zM967 1492h258l-49 -235h-258z" />
    <glyph glyph-name="Amacron" unicode="&#x100;" horiz-adv-x="1479" 
d="M41 0l841 1470h177h177l206 -1470v0h-167h-168v0l-34 308v0h-543v0l-164 -308v0h-162h-163v0zM983 1146l-320 -595v0h386v0l-66 595v0v0zM809 1811h640l-33 -159h-640z" />
    <glyph glyph-name="amacron" unicode="&#x101;" 
d="M400 -29c-89.333 0 -159.499 21.168 -210.499 63.501s-76.5 101.166 -76.5 176.499c0 12 0.833008 25.667 2.5 41s4.16699 30.333 7.5 45c18.667 90.667 63.334 166.667 134.001 228s157.334 99 260.001 113l242 34c22.667 3.33301 44 9 64 17
c25.333 10 44.666 24.5 57.999 43.5s19.666 41.167 18.999 66.5c-0.666992 26.667 -9.66699 47 -27 61c-24.667 19.333 -69.334 29 -134.001 29c-49.333 0 -91.333 -12.833 -126 -38.5s-61.667 -63.834 -81 -114.501v0h-271v0c28 124.667 89.333 219.334 184 284.001
s219 97 373 97c140.667 0 242.334 -27.333 305.001 -82c46.667 -40 69.667 -94 69 -162c0.666992 -23.333 -2 -48.333 -8 -75l-123 -593c-10 -48 -13 -84.833 -9 -110.5s15.667 -43.5 35 -53.5v-1l-8 -39h-155h-155v0c-4.66699 42.667 -4 85 2 127v0
c-112.667 -104.667 -236.334 -157 -371.001 -157zM820.001 396.001l27 132v0c-27.333 -15.333 -57.333 -26.666 -90 -33.999l-116 -23c-76 -15.333 -130.5 -34.666 -163.5 -57.999s-54.167 -57.333 -63.5 -102c-1.33301 -6.66699 -1.33301 -6.66699 0 0
c-1.33301 -6.66699 -2.33301 -13.334 -3 -20.001s-1 -13 -1 -19c0 -30.667 9.83301 -54.334 29.5 -71.001s47.167 -25 82.5 -25c90.667 0 171 36 241 108c12 12 23.333 28.667 34 50c11.333 22 19 42.667 23 62zM544.001 1429h640l-33 -159h-640z" />
    <glyph glyph-name="Abreve" unicode="&#x102;" horiz-adv-x="1479" 
d="M41 0l841 1470h177h177l206 -1470v0h-167h-168v0l-34 308v0h-543v0l-164 -308v0h-162h-163v0zM983 1146l-320 -595v0h386v0l-66 595v0v0zM1069 1620c-96 0 -165.834 24.667 -209.501 74s-61.5 123.666 -53.5 222.999h135c-1.33301 -50.667 12 -87.334 40 -110.001
s73.667 -34 137 -34c72.667 0 127.334 10.833 164.001 32.5s63 58.834 79 111.501h135c-30 -99.333 -80.5 -173.666 -151.5 -222.999s-162.833 -74 -275.5 -74z" />
    <glyph glyph-name="abreve" unicode="&#x103;" 
d="M400 -29c-89.333 0 -159.499 21.168 -210.499 63.501s-76.5 101.166 -76.5 176.499c0 12 0.833008 25.667 2.5 41s4.16699 30.333 7.5 45c18.667 90.667 63.334 166.667 134.001 228s157.334 99 260.001 113l242 34c22.667 3.33301 44 9 64 17
c25.333 10 44.666 24.5 57.999 43.5s19.666 41.167 18.999 66.5c-0.666992 26.667 -9.66699 47 -27 61c-24.667 19.333 -69.334 29 -134.001 29c-49.333 0 -91.333 -12.833 -126 -38.5s-61.667 -63.834 -81 -114.501v0h-271v0c28 124.667 89.333 219.334 184 284.001
s219 97 373 97c140.667 0 242.334 -27.333 305.001 -82c46.667 -40 69.667 -94 69 -162c0.666992 -23.333 -2 -48.333 -8 -75l-123 -593c-10 -48 -13 -84.833 -9 -110.5s15.667 -43.5 35 -53.5v-1l-8 -39h-155h-155v0c-4.66699 42.667 -4 85 2 127v0
c-112.667 -104.667 -236.334 -157 -371.001 -157zM820.001 396.001l27 132v0c-27.333 -15.333 -57.333 -26.666 -90 -33.999l-116 -23c-76 -15.333 -130.5 -34.666 -163.5 -57.999s-54.167 -57.333 -63.5 -102c-1.33301 -6.66699 -1.33301 -6.66699 0 0
c-1.33301 -6.66699 -2.33301 -13.334 -3 -20.001s-1 -13 -1 -19c0 -30.667 9.83301 -54.334 29.5 -71.001s47.167 -25 82.5 -25c90.667 0 171 36 241 108c12 12 23.333 28.667 34 50c11.333 22 19 42.667 23 62zM804.001 1238c-96 0 -165.834 24.667 -209.501 74
s-61.5 123.666 -53.5 222.999h135c-1.33301 -50.667 12 -87.334 40 -110.001s73.667 -34 137 -34c72.667 0 127.334 10.833 164.001 32.5s63 58.834 79 111.501h135c-30 -99.333 -80.5 -173.666 -151.5 -222.999s-162.833 -74 -275.5 -74z" />
    <glyph glyph-name="Aogonek" unicode="&#x104;" horiz-adv-x="1479" 
d="M41 0l841 1470h177h177l206 -1470v0h-167h-168v0l-34 308v0h-543v0l-164 -308v0h-162h-163v0zM983 1146l-320 -595v0h386v0l-66 595v0v0zM806 -276c12.667 60 45.168 115.331 97.501 165.998s115.5 87.334 189.5 110.001h176c-75.333 -40 -135.833 -81.5 -181.5 -124.5
s-72.5 -84.5 -80.5 -124.5c-6 -28.667 -2.16699 -53 11.5 -73s33.167 -30 58.5 -30c26 0 53.333 3.33301 82 10s55.334 15.667 80.001 27l15 -102c-40 -15.333 -81.667 -27.666 -125 -36.999c-42 -9.33301 -78.333 -14 -109 -14c-72.667 0 -129.334 18.333 -170.001 55
c-40.667 36 -55.334 81.667 -44.001 137z" />
    <glyph glyph-name="aogonek" unicode="&#x105;" 
d="M400 -29c-89.333 0 -159.499 21.168 -210.499 63.501s-76.5 101.166 -76.5 176.499c0 12 0.833008 25.667 2.5 41s4.16699 30.333 7.5 45c18.667 90.667 63.334 166.667 134.001 228s157.334 99 260.001 113l242 34c22.667 3.33301 44 9 64 17
c25.333 10 44.666 24.5 57.999 43.5s19.666 41.167 18.999 66.5c-0.666992 26.667 -9.66699 47 -27 61c-24.667 19.333 -69.334 29 -134.001 29c-49.333 0 -91.333 -12.833 -126 -38.5s-61.667 -63.834 -81 -114.501v0h-271v0c28 124.667 89.333 219.334 184 284.001
s219 97 373 97c140.667 0 242.334 -27.333 305.001 -82c46.667 -40 69.667 -94 69 -162c0.666992 -23.333 -2 -48.333 -8 -75l-123 -593c-10 -48 -13 -84.833 -9 -110.5s15.667 -43.5 35 -53.5v-1l-8 -39h-155h-155v0c-4.66699 42.667 -4 85 2 127v0
c-112.667 -104.667 -236.334 -157 -371.001 -157zM820.001 396.001l27 132v0c-27.333 -15.333 -57.333 -26.666 -90 -33.999l-116 -23c-76 -15.333 -130.5 -34.666 -163.5 -57.999s-54.167 -57.333 -63.5 -102c-1.33301 -6.66699 -1.33301 -6.66699 0 0
c-1.33301 -6.66699 -2.33301 -13.334 -3 -20.001s-1 -13 -1 -19c0 -30.667 9.83301 -54.334 29.5 -71.001s47.167 -25 82.5 -25c90.667 0 171 36 241 108c12 12 23.333 28.667 34 50c11.333 22 19 42.667 23 62zM493.001 -275.999c12.667 60 45.168 115.331 97.501 165.998
s115.5 87.334 189.5 110.001h176c-75.333 -40 -135.833 -81.5 -181.5 -124.5s-72.5 -84.5 -80.5 -124.5c-6 -28.667 -2.16699 -53 11.5 -73s33.167 -30 58.5 -30c26 0 53.333 3.33301 82 10s55.334 15.667 80.001 27l15 -102c-40 -15.333 -81.667 -27.666 -125 -36.999
c-42 -9.33301 -78.333 -14 -109 -14c-72.667 0 -129.334 18.333 -170.001 55c-40.667 36 -55.334 81.667 -44.001 137z" />
    <glyph glyph-name="Cacute" unicode="&#x106;" horiz-adv-x="1479" 
d="M1498 500c-57.333 -164.667 -151.497 -295.334 -282.497 -392.001s-279.5 -145 -445.5 -145c-172 0 -306.833 47.167 -404.5 141.5s-146.5 225.166 -146.5 392.499c0.666992 33.333 3.16699 70.5 7.5 111.5s10.833 81.5 19.5 121.5c49.333 238 148.5 427 297.5 567
s326.167 210 531.5 210c186.667 0 325.334 -44.333 416.001 -133c81.333 -79.333 122 -190.666 122 -333.999l-2 -55v0h-307v0c-4.66699 95.333 -27.334 162.5 -68.001 201.5s-108 58.5 -202 58.5c-114 0 -213.667 -46.333 -299 -139s-144.333 -217.667 -177 -375
c-6.66699 -30.667 -11.667 -61.667 -15 -93s-5 -59.666 -5 -84.999c0 -102.667 25.167 -183 75.5 -241s120.166 -87 209.499 -87c81.333 0 155.666 25.167 222.999 75.5s115.666 116.833 144.999 199.5v0h307zM992.003 1620l256 297h313l-360 -297h-209z" />
    <glyph glyph-name="cacute" unicode="&#x107;" 
d="M1157 397c-46 -130.667 -121.834 -234.332 -227.501 -310.999s-226.167 -115 -361.5 -115c-130.667 0 -231 32.667 -301 98s-105 159.666 -105 282.999c0 28 1.83301 58.167 5.5 90.5s8.83398 64.833 15.501 97.5c37.333 180.667 112.5 322 225.5 424
s251.167 153 414.5 153c139.333 0 244 -36.667 314 -110c58 -60 86.667 -140 86 -240l-4 -67v0h-290v0c-2.66699 62 -16.334 106.833 -41.001 134.5s-63 41.5 -115 41.5c-74.667 0 -136.5 -29.167 -185.5 -87.5s-85.833 -145.833 -110.5 -262.5
c-4 -22 -7.33301 -44.167 -10 -66.5s-4 -42.833 -4 -61.5c0 -60.667 13.333 -107.667 40 -141s64.334 -50 113.001 -50c55.333 0 106 17.5 152 52.5s79 80.833 99 137.5v0h290zM729.999 1238l256 297h313l-360 -297h-209z" />
    <glyph glyph-name="Ccaron" unicode="&#x10c;" horiz-adv-x="1479" 
d="M1498 500c-57.333 -164.667 -151.497 -295.334 -282.497 -392.001s-279.5 -145 -445.5 -145c-172 0 -306.833 47.167 -404.5 141.5s-146.5 225.166 -146.5 392.499c0.666992 33.333 3.16699 70.5 7.5 111.5s10.833 81.5 19.5 121.5c49.333 238 148.5 427 297.5 567
s326.167 210 531.5 210c186.667 0 325.334 -44.333 416.001 -133c81.333 -79.333 122 -190.666 122 -333.999l-2 -55v0h-307v0c-4.66699 95.333 -27.334 162.5 -68.001 201.5s-108 58.5 -202 58.5c-114 0 -213.667 -46.333 -299 -139s-144.333 -217.667 -177 -375
c-6.66699 -30.667 -11.667 -61.667 -15 -93s-5 -59.666 -5 -84.999c0 -102.667 25.167 -183 75.5 -241s120.166 -87 209.499 -87c81.333 0 155.666 25.167 222.999 75.5s115.666 116.833 144.999 199.5v0h307zM964.003 1621l-167 299h229l94 -167v0l165 167h234l-301 -299
h-127h-127z" />
    <glyph glyph-name="ccaron" unicode="&#x10d;" 
d="M1157 397c-46 -130.667 -121.834 -234.332 -227.501 -310.999s-226.167 -115 -361.5 -115c-130.667 0 -231 32.667 -301 98s-105 159.666 -105 282.999c0 28 1.83301 58.167 5.5 90.5s8.83398 64.833 15.501 97.5c37.333 180.667 112.5 322 225.5 424
s251.167 153 414.5 153c139.333 0 244 -36.667 314 -110c58 -60 86.667 -140 86 -240l-4 -67v0h-290v0c-2.66699 62 -16.334 106.833 -41.001 134.5s-63 41.5 -115 41.5c-74.667 0 -136.5 -29.167 -185.5 -87.5s-85.833 -145.833 -110.5 -262.5
c-4 -22 -7.33301 -44.167 -10 -66.5s-4 -42.833 -4 -61.5c0 -60.667 13.333 -107.667 40 -141s64.334 -50 113.001 -50c55.333 0 106 17.5 152 52.5s79 80.833 99 137.5v0h290zM720.999 1239l-167 299h229l94 -167v0l165 167h234l-301 -299h-127h-127z" />
    <glyph glyph-name="Dcaron" unicode="&#x10e;" horiz-adv-x="1479" 
d="M156 0l304 1470v0h153v0h373c196.667 0 345.667 -41.333 447 -124s152 -204.334 152 -365.001c-0.666992 -33.333 -3 -68.666 -7 -105.999s-10 -75.333 -18 -114c-57.333 -274 -150.333 -469.333 -279 -586s-316 -175 -562 -175h-410v0h-153v0zM512 244
l256.999 0.000976562c134 0 236.333 33.333 307 100s122.334 178 155.001 334c9.33301 46 16.166 87.5 20.499 124.5s6.83301 72.5 7.5 106.5c-0.666992 107.333 -27.167 186.166 -79.5 236.499s-134.166 75.5 -245.499 75.5h-220v0zM855.999 1621l-167 299h229l94 -167v0
l165 167h234l-301 -299h-127h-127z" />
    <glyph glyph-name="dcaron" unicode="&#x10f;" horiz-adv-x="1515" 
d="M473 -29c-110 0 -196.167 35.166 -258.5 105.499s-93.5 167.833 -93.5 292.5c0 30 2.16699 63.833 6.5 101.5s10.166 74.834 17.499 111.501c32 153.333 100.333 280.833 205 382.5s220.334 152.5 347.001 152.5c138.667 0 236 -52.333 292 -157l5 -9v0l108 519v0h143
h144v0l-304 -1470v0h-143h-144v0l25 123v0c-105.333 -101.333 -222 -152 -350 -152zM746 868.999c-73.333 0 -138.666 -30.166 -195.999 -90.499s-96.333 -139.833 -117 -238.5c-4.66699 -22 -8.16699 -43.667 -10.5 -65s-3.5 -40.333 -3.5 -57
c0 -67.333 16.5 -119.333 49.5 -156s79.5 -55 139.5 -55c74 0 139.667 29.167 197 87.5s95.666 135.166 114.999 230.499c22.667 110 19 194.833 -11 254.5s-84.333 89.5 -163 89.5zM1495 1337l27.001 133h131h130l-42 -203c-22 -106 -60.833 -189.667 -116.5 -251
s-130.5 -103 -224.5 -125v0l25 122v0c53.333 16 92.333 42.667 117 80c17.333 25.333 32.666 62.333 45.999 111v0h-121z" />
    <glyph glyph-name="Dcroat" unicode="&#x110;" horiz-adv-x="1479" 
d="M159 0l132.998 644.999v0h-165l53 256h165v0l118 569v0h153v0h372c196 0 344.5 -41.333 445.5 -124s151.5 -204.334 151.5 -365.001c-0.666992 -33.333 -3 -68.666 -7 -105.999s-10 -75.666 -18 -114.999c-57.333 -273.333 -150.166 -468.333 -278.499 -585
s-315.166 -175 -560.499 -175h-409v0h-153zM716.998 1221l-65.998 -320v0h332l-53 -256h-332v0l-83 -401v0h256c133.333 0 235.166 33.333 305.499 100s121.833 178 154.5 334c9.33301 46 16.166 87.667 20.499 125s6.83301 73 7.5 107c0 106.667 -26 185.167 -78 235.5
s-133.667 75.5 -245 75.5h-219z" />
    <glyph glyph-name="dcroat" unicode="&#x111;" horiz-adv-x="1251" 
d="M520 -29c-110 0 -196.167 35.166 -258.5 105.499s-93.5 167.833 -93.5 292.5c0 30 2.16699 63.833 6.5 101.5s10.166 74.834 17.499 111.501c32 153.333 100.333 280.833 205 382.5s220.334 152.5 347.001 152.5c138.667 0 236 -52.333 292 -157l5 -9v0l51 246h-337
l41 194h337l16 79v0h143h144v0l-16 -79h149l-41 -194h-149l-247 -1197v0h-143h-144v0l25 123v0c-105.333 -101.333 -222 -152 -350 -152zM793 868.999c-73.333 0 -138.666 -30.166 -195.999 -90.499s-96.333 -139.833 -117 -238.5c-4.66699 -22 -8.16699 -43.667 -10.5 -65
s-3.5 -40.333 -3.5 -57c0 -67.333 16.5 -119.333 49.5 -156s79.5 -55 139.5 -55c74 0 139.667 29.167 197 87.5s95.666 135.166 114.999 230.499c22.667 110 19 194.833 -11 254.5s-84.333 89.5 -163 89.5z" />
    <glyph glyph-name="Emacron" unicode="&#x112;" horiz-adv-x="1366" 
d="M156 0l304 1470v0h1085v0l-25 -131l-25 -131v0h-783v0l-64 -305v0h723l-27 -131l-27 -131v0h-723v0l-78 -379v0h817v0l-29 -131l-29 -131v0h-1119zM743 1811h640l-33 -159h-640z" />
    <glyph glyph-name="emacron" unicode="&#x113;" 
d="M583 -29c-142 0 -250.831 33.499 -326.498 100.499s-113.5 163.5 -113.5 289.5c0.666992 26.667 2.66699 55.334 6 86.001s8 61.667 14 93c37.333 180.667 112.166 322 224.499 424s249.5 153 411.5 153c136.667 0 240 -33.333 310 -100s105 -164.667 105 -294
c0 -32 -2 -66.333 -6 -103s-10.333 -74.667 -19 -114l-7 -35v0h-746v0l-2 -14c-2.66699 -20 -4 -39 -4 -57c0.666992 -66 17.667 -115.5 51 -148.5s83.666 -49.5 150.999 -49.5c48.667 0 93 10.5 133 31.5s68.333 48.5 85 82.5v0h290v0
c-50.667 -106 -126.167 -190 -226.5 -252s-210.5 -93 -330.5 -93zM928.002 657.999l1.00195 38.001c0 62.667 -14.833 109.167 -44.5 139.5s-74.834 45.5 -135.501 45.5c-76.667 0 -140.334 -29.667 -191.001 -89c-29.333 -34.667 -54.333 -79.334 -75 -134.001v0h445z
M564.004 1429h640l-33 -159h-640z" />
    <glyph glyph-name="Edotaccent" unicode="&#x116;" horiz-adv-x="1366" 
d="M156 0l304 1470v0h1085v0l-25 -131l-25 -131v0h-783v0l-64 -305v0h723l-27 -131l-27 -131v0h-723v0l-78 -379v0h817v0l-29 -131l-29 -131v0h-1119zM947 1875h258l-49 -236h-258z" />
    <glyph glyph-name="edotaccent" unicode="&#x117;" 
d="M583 -29c-142 0 -250.831 33.499 -326.498 100.499s-113.5 163.5 -113.5 289.5c0.666992 26.667 2.66699 55.334 6 86.001s8 61.667 14 93c37.333 180.667 112.166 322 224.499 424s249.5 153 411.5 153c136.667 0 240 -33.333 310 -100s105 -164.667 105 -294
c0 -32 -2 -66.333 -6 -103s-10.333 -74.667 -19 -114l-7 -35v0h-746v0l-2 -14c-2.66699 -20 -4 -39 -4 -57c0.666992 -66 17.667 -115.5 51 -148.5s83.666 -49.5 150.999 -49.5c48.667 0 93 10.5 133 31.5s68.333 48.5 85 82.5v0h290v0
c-50.667 -106 -126.167 -190 -226.5 -252s-210.5 -93 -330.5 -93zM928.002 657.999l1.00195 38.001c0 62.667 -14.833 109.167 -44.5 139.5s-74.834 45.5 -135.501 45.5c-76.667 0 -140.334 -29.667 -191.001 -89c-29.333 -34.667 -54.333 -79.334 -75 -134.001v0h445z
M768.004 1493h258l-49 -236h-258z" />
    <glyph glyph-name="Eogonek" unicode="&#x118;" horiz-adv-x="1366" 
d="M156 0l304 1470v0h1085v0l-25 -131l-25 -131v0h-783v0l-64 -305v0h723l-27 -131l-27 -131v0h-723v0l-78 -379v0h817v0l-29 -131l-29 -131v0h-1119zM750 -276c12.667 60 45.168 115.331 97.501 165.998s115.5 87.334 189.5 110.001h176
c-75.333 -40 -135.833 -81.5 -181.5 -124.5s-72.5 -84.5 -80.5 -124.5c-6 -28.667 -2.16699 -53 11.5 -73s33.167 -30 58.5 -30c26 0 53.333 3.33301 82 10s55.334 15.667 80.001 27l15 -102c-40 -15.333 -81.667 -27.666 -125 -36.999c-42 -9.33301 -78.333 -14 -109 -14
c-72.667 0 -129.334 18.333 -170.001 55c-40.667 36 -55.334 81.667 -44.001 137z" />
    <glyph glyph-name="eogonek" unicode="&#x119;" 
d="M583 -29c-142 0 -250.831 33.499 -326.498 100.499s-113.5 163.5 -113.5 289.5c0.666992 26.667 2.66699 55.334 6 86.001s8 61.667 14 93c37.333 180.667 112.166 322 224.499 424s249.5 153 411.5 153c136.667 0 240 -33.333 310 -100s105 -164.667 105 -294
c0 -32 -2 -66.333 -6 -103s-10.333 -74.667 -19 -114l-7 -35v0h-746v0l-2 -14c-2.66699 -20 -4 -39 -4 -57c0.666992 -66 17.667 -115.5 51 -148.5s83.666 -49.5 150.999 -49.5c48.667 0 93 10.5 133 31.5s68.333 48.5 85 82.5v0h290v0
c-50.667 -106 -126.167 -190 -226.5 -252s-210.5 -93 -330.5 -93zM928.002 657.999l1.00195 38.001c0 62.667 -14.833 109.167 -44.5 139.5s-74.834 45.5 -135.501 45.5c-76.667 0 -140.334 -29.667 -191.001 -89c-29.333 -34.667 -54.333 -79.334 -75 -134.001v0h445z
M275.004 -276c12.667 60 45.168 115.331 97.501 165.998s115.5 87.334 189.5 110.001h176c-75.333 -40 -135.833 -81.5 -181.5 -124.5s-72.5 -84.5 -80.5 -124.5c-6 -28.667 -2.16699 -53 11.5 -73s33.167 -30 58.5 -30c26 0 53.333 3.33301 82 10s55.334 15.667 80.001 27
l15 -102c-40 -15.333 -81.667 -27.666 -125 -36.999c-42 -9.33301 -78.333 -14 -109 -14c-72.667 0 -129.334 18.333 -170.001 55c-40.667 36 -55.334 81.667 -44.001 137z" />
    <glyph glyph-name="Ecaron" unicode="&#x11a;" horiz-adv-x="1366" 
d="M156 0l304 1470v0h1085v0l-25 -131l-25 -131v0h-783v0l-64 -305v0h723l-27 -131l-27 -131v0h-723v0l-78 -379v0h817v0l-29 -131l-29 -131v0h-1119zM890 1621l-167 299h229l94 -167v0l165 167h234l-301 -299h-127h-127z" />
    <glyph glyph-name="ecaron" unicode="&#x11b;" 
d="M583 -29c-142 0 -250.831 33.499 -326.498 100.499s-113.5 163.5 -113.5 289.5c0.666992 26.667 2.66699 55.334 6 86.001s8 61.667 14 93c37.333 180.667 112.166 322 224.499 424s249.5 153 411.5 153c136.667 0 240 -33.333 310 -100s105 -164.667 105 -294
c0 -32 -2 -66.333 -6 -103s-10.333 -74.667 -19 -114l-7 -35v0h-746v0l-2 -14c-2.66699 -20 -4 -39 -4 -57c0.666992 -66 17.667 -115.5 51 -148.5s83.666 -49.5 150.999 -49.5c48.667 0 93 10.5 133 31.5s68.333 48.5 85 82.5v0h290v0
c-50.667 -106 -126.167 -190 -226.5 -252s-210.5 -93 -330.5 -93zM928.002 657.999l1.00195 38.001c0 62.667 -14.833 109.167 -44.5 139.5s-74.834 45.5 -135.501 45.5c-76.667 0 -140.334 -29.667 -191.001 -89c-29.333 -34.667 -54.333 -79.334 -75 -134.001v0h445z
M718.004 1239l-167 299h229l94 -167v0l165 167h234l-301 -299h-127h-127z" />
    <glyph glyph-name="Gbreve" unicode="&#x11e;" horiz-adv-x="1593" 
d="M783 -37c-175.333 0 -312.832 47.5 -412.499 142.5s-149.5 226.5 -149.5 394.5c0 33.333 2.33301 70.333 7 111s11 80.334 19 119.001c49.333 238 153.333 427 312 567s348.667 210 570 210c186 0 324.833 -41.833 416.5 -125.5s131.834 -206.167 120.501 -367.5v0h-306
v0c-3.33301 76 -28.833 135.333 -76.5 178s-111.834 64 -192.501 64c-130 0 -242.833 -47 -338.5 -141s-159.834 -221 -192.501 -381c-6.66699 -31.333 -11.667 -62.333 -15 -93s-5.33301 -59.334 -6 -86.001c0 -108.667 29 -191.667 87 -249s141.333 -86 250 -86
c114.667 0 215.667 46.333 303 139c49.333 52.667 89.333 115 120 187v0h-341l51 248h612l-164 -790h-204l9 188v0l-20 -22c-130.667 -138 -283.667 -207 -459 -207zM1131 1620c-96 0 -165.834 24.667 -209.501 74s-61.5 123.666 -53.5 222.999h135
c-1.33301 -50.667 12 -87.334 40 -110.001s73.667 -34 137 -34c72.667 0 127.334 10.833 164.001 32.5s63 58.834 79 111.501h135c-30 -99.333 -80.5 -173.666 -151.5 -222.999s-162.833 -74 -275.5 -74z" />
    <glyph glyph-name="gbreve" unicode="&#x11f;" horiz-adv-x="1251" 
d="M575 -229c80.667 0 144.833 20.6689 192.5 62.002s80.167 105.333 97.5 192l31 153v0c-14 -20.667 -29 -39.334 -45 -56.001c-80.667 -85.333 -180.334 -128 -299.001 -128c-117.333 0 -209.166 34.167 -275.499 102.5s-99.833 162.833 -100.5 283.5
c0 26 1.83301 55 5.5 87s8.83398 63.667 15.501 95c32.667 159.333 104 291.666 214 396.999s231.667 158 365 158c122.667 0 208.334 -45.667 257.001 -137c10.667 -19.333 19.667 -41.333 27 -66v0l36 174v0h270l-214 -1031
c-34.667 -170.667 -103.834 -297.167 -207.501 -379.5s-245.5 -123.5 -425.5 -123.5c-152.667 0 -267.334 28.167 -344.001 84.5s-109 136.833 -97 241.5v0h312v0c0 -40 13.833 -68.167 41.5 -84.5s75.5 -24.5 143.5 -24.5zM800.999 868.002
c-71.333 0 -134.833 -28.999 -190.5 -86.999s-93.167 -134.667 -112.5 -230c-4.66699 -20.667 -8 -41.167 -10 -61.5s-3.33301 -38.833 -4 -55.5c0 -64.667 16 -114.834 48 -150.501s77.333 -53.5 136 -53.5c72 0 135.667 28 191 84s92.333 130 111 222
c22 106 18.333 187.833 -11 245.5s-82 86.5 -158 86.5zM779.999 1238c-96 0 -165.834 24.667 -209.501 74s-61.5 123.666 -53.5 222.999h135c-1.33301 -50.667 12 -87.334 40 -110.001s73.667 -34 137 -34c72.667 0 127.334 10.833 164.001 32.5s63 58.834 79 111.501h135
c-30 -99.333 -80.5 -173.666 -151.5 -222.999s-162.833 -74 -275.5 -74z" />
    <glyph glyph-name="Gcommaaccent" unicode="&#x122;" horiz-adv-x="1593" 
d="M783 -37c-175.333 0 -312.832 47.5 -412.499 142.5s-149.5 226.5 -149.5 394.5c0 33.333 2.33301 70.333 7 111s11 80.334 19 119.001c49.333 238 153.333 427 312 567s348.667 210 570 210c186 0 324.833 -41.833 416.5 -125.5s131.834 -206.167 120.501 -367.5v0h-306
v0c-3.33301 76 -28.833 135.333 -76.5 178s-111.834 64 -192.501 64c-130 0 -242.833 -47 -338.5 -141s-159.834 -221 -192.501 -381c-6.66699 -31.333 -11.667 -62.333 -15 -93s-5.33301 -59.334 -6 -86.001c0 -108.667 29 -191.667 87 -249s141.333 -86 250 -86
c114.667 0 215.667 46.333 303 139c49.333 52.667 89.333 115 120 187v0h-341l51 248h612l-164 -790h-204l9 188v0l-20 -22c-130.667 -138 -283.667 -207 -459 -207zM607.001 -283l27.001 133h131h130l-42 -203c-22 -106 -60.833 -189.667 -116.5 -251
s-130.5 -103 -224.5 -125v0l25 122v0c53.333 16 92.333 42.667 117 80c17.333 25.333 32.666 62.333 45.999 111v0h-121z" />
    <glyph glyph-name="gcommaaccent" unicode="&#x123;" horiz-adv-x="1251" 
d="M575 -229c80.667 0 144.833 20.6689 192.5 62.002s80.167 105.333 97.5 192l31 153v0c-14 -20.667 -29 -39.334 -45 -56.001c-80.667 -85.333 -180.334 -128 -299.001 -128c-117.333 0 -209.166 34.167 -275.499 102.5s-99.833 162.833 -100.5 283.5
c0 26 1.83301 55 5.5 87s8.83398 63.667 15.501 95c32.667 159.333 104 291.666 214 396.999s231.667 158 365 158c122.667 0 208.334 -45.667 257.001 -137c10.667 -19.333 19.667 -41.333 27 -66v0l36 174v0h270l-214 -1031
c-34.667 -170.667 -103.834 -297.167 -207.501 -379.5s-245.5 -123.5 -425.5 -123.5c-152.667 0 -267.334 28.167 -344.001 84.5s-109 136.833 -97 241.5v0h312v0c0 -40 13.833 -68.167 41.5 -84.5s75.5 -24.5 143.5 -24.5zM800.999 868.002
c-71.333 0 -134.833 -28.999 -190.5 -86.999s-93.167 -134.667 -112.5 -230c-4.66699 -20.667 -8 -41.167 -10 -61.5s-3.33301 -38.833 -4 -55.5c0 -64.667 16 -114.834 48 -150.501s77.333 -53.5 136 -53.5c72 0 135.667 28 191 84s92.333 130 111 222
c22 106 18.333 187.833 -11 245.5s-82 86.5 -158 86.5zM956.999 1371l-27.001 -133h-131h-130l42 203c21.333 106 60 189.667 116 251s131 103 225 125v0l-25 -122v0c-53.333 -16 -92.333 -42.667 -117 -80c-17.333 -25.333 -32.666 -62.333 -45.999 -111v0h121z" />
    <glyph glyph-name="Imacron" unicode="&#x12a;" horiz-adv-x="569" 
d="M131 0l304 1470v0h153h153v0l-304 -1470v0h-153h-153v0zM338 1811h640l-33 -159h-640z" />
    <glyph glyph-name="imacron" unicode="&#x12b;" horiz-adv-x="569" 
d="M141 0l225 1088v0h143h144v0l-225 -1088v0h-143h-144v0zM259 1429h640l-33 -159h-640z" />
    <glyph glyph-name="Iogonek" unicode="&#x12e;" horiz-adv-x="569" 
d="M135 0l304 1470v0h153h153v0l-304 -1470v0h-153h-153v0zM-28 -276c12.667 60 45.168 115.331 97.501 165.998s115.5 87.334 189.5 110.001h176c-75.333 -40 -135.833 -81.5 -181.5 -124.5s-72.5 -84.5 -80.5 -124.5c-6 -28.667 -2.16699 -53 11.5 -73
s33.167 -30 58.5 -30c26 0 53.333 3.33301 82 10s55.334 15.667 80.001 27l15 -102c-40 -15.333 -81.667 -27.666 -125 -36.999c-42 -9.33301 -78.333 -14 -109 -14c-72.667 0 -129.334 18.333 -170.001 55c-40.667 36 -55.334 81.667 -44.001 137z" />
    <glyph glyph-name="iogonek" unicode="&#x12f;" horiz-adv-x="569" 
d="M147 0l225 1088v0h143h144v0l-225 -1088v0h-143h-144v0zM463 1482h290l-54 -262h-290zM-40 -276c12.667 60 45.168 115.331 97.501 165.998s115.5 87.334 189.5 110.001h176c-75.333 -40 -135.833 -81.5 -181.5 -124.5s-72.5 -84.5 -80.5 -124.5
c-6 -28.667 -2.16699 -53 11.5 -73s33.167 -30 58.5 -30c26 0 53.333 3.33301 82 10s55.334 15.667 80.001 27l15 -102c-40 -15.333 -81.667 -27.666 -125 -36.999c-42 -9.33301 -78.333 -14 -109 -14c-72.667 0 -129.334 18.333 -170.001 55
c-40.667 36 -55.334 81.667 -44.001 137z" />
    <glyph glyph-name="Idotaccent" unicode="&#x130;" horiz-adv-x="569" 
d="M131 0l304 1470v0h153h153v0l-304 -1470v0h-153h-153v0zM542 1875h258l-49 -236h-258z" />
    <glyph glyph-name="dotlessi" unicode="&#x131;" horiz-adv-x="569" 
d="M141 0l225 1088v0h143h144v0l-225 -1088v0h-143h-144v0z" />
    <glyph glyph-name="Kcommaaccent" unicode="&#x136;" horiz-adv-x="1479" 
d="M178 0l304 1470v0h153h153v0l-125 -605v0l699 605v0h197h197v0l-725 -611v0l447 -859v0h-198h-199v0l-311 641v0l-186 -158v0l-100 -483v0h-153h-153v0zM599 -283l27.001 133h131h130l-42 -203c-22 -106 -60.833 -189.667 -116.5 -251s-130.5 -103 -224.5 -125v0l25 122
v0c53.333 16 92.333 42.667 117 80c17.333 25.333 32.666 62.333 45.999 111v0h-121z" />
    <glyph glyph-name="kcommaaccent" unicode="&#x137;" 
d="M141 0l304 1470v0h143h144v0l-166 -800v0l452 418v0h175h175v0l-474 -409v0l259 -679v0h-171h-172v0l-163 466v0l-150 -130v0l-69 -336v0h-143h-144v0zM436 -283l27.001 133h131h130l-42 -203c-22 -106 -60.833 -189.667 -116.5 -251s-130.5 -103 -224.5 -125v0l25 122v0
c53.333 16 92.333 42.667 117 80c17.333 25.333 32.666 62.333 45.999 111v0h-121z" />
    <glyph glyph-name="Lacute" unicode="&#x139;" horiz-adv-x="1251" 
d="M156 0l304 1470v0h153h153v0l-250 -1208v0h731v0l-29 -131l-29 -131v0h-1033zM538 1620l256 297h313l-360 -297h-209z" />
    <glyph glyph-name="lacute" unicode="&#x13a;" horiz-adv-x="569" 
d="M141 0l304 1470v0h143h144v0l-304 -1470v0h-143h-144v0zM513 1620l256 297h313l-360 -297h-209z" />
    <glyph glyph-name="Lcommaaccent" unicode="&#x13b;" horiz-adv-x="1251" 
d="M156 0l304 1470v0h153h153v0l-250 -1208v0h731v0l-29 -131l-29 -131v0h-1033zM489 -283l27.001 133h131h130l-42 -203c-22 -106 -60.833 -189.667 -116.5 -251s-130.5 -103 -224.5 -125v0l25 122v0c53.333 16 92.333 42.667 117 80
c17.333 25.333 32.666 62.333 45.999 111v0h-121z" />
    <glyph glyph-name="lcommaaccent" unicode="&#x13c;" horiz-adv-x="569" 
d="M140 0l304 1470v0h143h144v0l-304 -1470v0h-143h-144v0zM100 -283l27.001 133h131h130l-42 -203c-22 -106 -60.833 -189.667 -116.5 -251s-130.5 -103 -224.5 -125v0l25 122v0c53.333 16 92.333 42.667 117 80c17.333 25.333 32.666 62.333 45.999 111v0h-121z" />
    <glyph glyph-name="Lcaron" unicode="&#x13d;" horiz-adv-x="1251" 
d="M156 0l304 1470v0h153h153v0l-250 -1208v0h731v0l-29 -131l-29 -131v0h-1033zM1019 1337l27.001 133h131h130l-42 -203c-22 -106 -60.833 -189.667 -116.5 -251s-130.5 -103 -224.5 -125v0l25 122v0c53.333 16 92.333 42.667 117 80
c17.333 25.333 32.666 62.333 45.999 111v0h-121z" />
    <glyph glyph-name="lcaron" unicode="&#x13e;" horiz-adv-x="853" 
d="M211 0l304 1470v0h143h144v0l-304 -1470v0h-143h-144v0zM907 1337l27.001 133h131h130l-42 -203c-22 -106 -60.833 -189.667 -116.5 -251s-130.5 -103 -224.5 -125v0l25 122v0c53.333 16 92.333 42.667 117 80c17.333 25.333 32.666 62.333 45.999 111v0h-121z" />
    <glyph glyph-name="Lslash" unicode="&#x141;" horiz-adv-x="1251" 
d="M145 0l130 629l-215 -104l33 158l214 104l142 683v0h153h153v0l-107 -517l302 147l-32 -158l-303 -147l-110 -533v0h731v0l-29 -131l-29 -131v0h-1033z" />
    <glyph glyph-name="lslash" unicode="&#x142;" horiz-adv-x="569" 
d="M142 0l136 658l-201 -98l34 161l200 98l135 651v0h143h144v0l-103 -495l200 98l-34 -161l-199 -98l-168 -814v0h-143h-144v0z" />
    <glyph glyph-name="Nacute" unicode="&#x143;" horiz-adv-x="1479" 
d="M427 0h-143h-143v0l304 1470v0h162h162v0l378 -1041v0v0l216 1041v0h143h143v0l-304 -1470h-152h-153l-395 1057v0v0zM972 1620l256 297h313l-360 -297h-209z" />
    <glyph glyph-name="nacute" unicode="&#x144;" horiz-adv-x="1251" 
d="M133 0l225 1088v0h139h139v0l-32 -156v0v0l40 45c90.667 93.333 200.667 140 330 140c117.333 0 202.333 -33.167 255 -99.5s66.667 -158.166 42 -275.499l-153 -742v0h-143h-144v0l139 672c14 69.333 10 120.666 -12 153.999s-63 50 -123 50
c-73.333 0 -135.333 -22.167 -186 -66.5s-84 -105.833 -100 -184.5v0l-129 -625v0h-143h-144v0zM763 1238l256 297h313l-360 -297h-209z" />
    <glyph glyph-name="Ncommaaccent" unicode="&#x145;" horiz-adv-x="1479" 
d="M427 0h-143h-143v0l304 1470v0h162h162v0l378 -1041v0v0l216 1041v0h143h143v0l-304 -1470h-152h-153l-395 1057v0v0zM560 -283l27.001 133h131h130l-42 -203c-22 -106 -60.833 -189.667 -116.5 -251s-130.5 -103 -224.5 -125v0l25 122v0c53.333 16 92.333 42.667 117 80
c17.333 25.333 32.666 62.333 45.999 111v0h-121z" />
    <glyph glyph-name="ncommaaccent" unicode="&#x146;" horiz-adv-x="1251" 
d="M133 0l225 1088v0h139h139v0l-32 -156v0v0l40 45c90.667 93.333 200.667 140 330 140c117.333 0 202.333 -33.167 255 -99.5s66.667 -158.166 42 -275.499l-153 -742v0h-143h-144v0l139 672c14 69.333 10 120.666 -12 153.999s-63 50 -123 50
c-73.333 0 -135.333 -22.167 -186 -66.5s-84 -105.833 -100 -184.5v0l-129 -625v0h-143h-144v0zM442 -283l27.001 133h131h130l-42 -203c-22 -106 -60.833 -189.667 -116.5 -251s-130.5 -103 -224.5 -125v0l25 122v0c53.333 16 92.333 42.667 117 80
c17.333 25.333 32.666 62.333 45.999 111v0h-121z" />
    <glyph glyph-name="Ncaron" unicode="&#x147;" horiz-adv-x="1479" 
d="M427 0h-143h-143v0l304 1470v0h162h162v0l378 -1041v0v0l216 1041v0h143h143v0l-304 -1470h-152h-153l-395 1057v0v0zM944 1621l-167 299h229l94 -167v0l165 167h234l-301 -299h-127h-127z" />
    <glyph glyph-name="ncaron" unicode="&#x148;" horiz-adv-x="1251" 
d="M133 0l225 1088v0h139h139v0l-32 -156v0v0l40 45c90.667 93.333 200.667 140 330 140c117.333 0 202.333 -33.167 255 -99.5s66.667 -158.166 42 -275.499l-153 -742v0h-143h-144v0l139 672c14 69.333 10 120.666 -12 153.999s-63 50 -123 50
c-73.333 0 -135.333 -22.167 -186 -66.5s-84 -105.833 -100 -184.5v0l-129 -625v0h-143h-144v0zM754 1239l-167 299h229l94 -167v0l165 167h234l-301 -299h-127h-127z" />
    <glyph glyph-name="Omacron" unicode="&#x14c;" horiz-adv-x="1593" 
d="M793 -37c-179.333 0 -319.831 47.668 -421.498 143.001s-152.5 227.666 -152.5 396.999c0 33.333 2.16699 70 6.5 110s10.5 79 18.5 117c49.333 238 152 427 308 567s342.667 210 560 210c179.333 0 319.666 -48.167 420.999 -144.5s152 -229.833 152 -400.5
c-0.666992 -33.333 -3.16699 -70.5 -7.5 -111.5s-10.5 -81.167 -18.5 -120.5c-48.667 -235.333 -151.334 -422 -308.001 -560c-155.333 -138 -341.333 -207 -558 -207v0zM845.002 220.001c121.333 0 227.166 46.001 317.499 138.001s151.833 216.333 184.5 373
c6 29.333 10.667 59.666 14 90.999s5.33301 60 6 86c0 107.333 -27.333 191.166 -82 251.499s-130.334 90.5 -227.001 90.5c-121.333 0 -227.166 -46.667 -317.499 -140s-151.833 -219.666 -184.5 -378.999c-6 -30 -10.833 -60.333 -14.5 -91s-5.5 -58 -5.5 -82
c0 -106 27.333 -188.833 82 -248.5s130.334 -89.5 227.001 -89.5v0zM854.002 1811h640l-33 -159h-640z" />
    <glyph glyph-name="omacron" unicode="&#x14d;" horiz-adv-x="1251" 
d="M625 -29c-140.667 0 -251.834 37.166 -333.501 111.499s-122.834 175.5 -123.501 303.5c0 22 1.5 46.833 4.5 74.5s7.16699 54.167 12.5 79.5c36.667 176.667 115.834 317 237.501 421s268.167 156 439.5 156c140.667 0 251.834 -37.667 333.501 -113
s122.5 -177.666 122.5 -306.999c0 -22.667 -1.66699 -48 -5 -76s-7.66602 -55 -12.999 -81c-36 -174.667 -114.833 -313.167 -236.5 -415.5s-267.834 -153.5 -438.501 -153.5v0zM674 211.999c87.333 0 158.665 28.666 213.998 85.999s95 143.666 119 258.999
c4 18.667 7 37.334 9 56.001s3 35.667 3 51c0 67.333 -18 119.5 -54 156.5s-87 55.5 -153 55.5c-86.667 0 -157.667 -29.167 -213 -87.5s-95.333 -146.166 -120 -263.499c-3.33301 -18 -6.16602 -36 -8.49902 -54s-3.16602 -34.667 -2.49902 -50
c0 -66.667 17.833 -118.167 53.5 -154.5s86.5 -54.5 152.5 -54.5v0zM605.999 1429h640l-33 -159h-640z" />
    <glyph glyph-name="Ohungarumlaut" unicode="&#x150;" horiz-adv-x="1593" 
d="M793 -37c-179.333 0 -319.831 47.668 -421.498 143.001s-152.5 227.666 -152.5 396.999c0 33.333 2.16699 70 6.5 110s10.5 79 18.5 117c49.333 238 152 427 308 567s342.667 210 560 210c179.333 0 319.666 -48.167 420.999 -144.5s152 -229.833 152 -400.5
c-0.666992 -33.333 -3.16699 -70.5 -7.5 -111.5s-10.5 -81.167 -18.5 -120.5c-48.667 -235.333 -151.334 -422 -308.001 -560c-155.333 -138 -341.333 -207 -558 -207v0zM845.002 220.001c121.333 0 227.166 46.001 317.499 138.001s151.833 216.333 184.5 373
c6 29.333 10.667 59.666 14 90.999s5.33301 60 6 86c0 107.333 -27.333 191.166 -82 251.499s-130.334 90.5 -227.001 90.5c-121.333 0 -227.166 -46.667 -317.499 -140s-151.833 -219.666 -184.5 -378.999c-6 -30 -10.833 -60.333 -14.5 -91s-5.5 -58 -5.5 -82
c0 -106 27.333 -188.833 82 -248.5s130.334 -89.5 227.001 -89.5v0zM731.002 1620l256 297h313l-360 -297h-209zM1198 1620l256 297h313l-360 -297h-209z" />
    <glyph glyph-name="ohungarumlaut" unicode="&#x151;" horiz-adv-x="1251" 
d="M625 -29c-140.667 0 -251.834 37.166 -333.501 111.499s-122.834 175.5 -123.501 303.5c0 22 1.5 46.833 4.5 74.5s7.16699 54.167 12.5 79.5c36.667 176.667 115.834 317 237.501 421s268.167 156 439.5 156c140.667 0 251.834 -37.667 333.501 -113
s122.5 -177.666 122.5 -306.999c0 -22.667 -1.66699 -48 -5 -76s-7.66602 -55 -12.999 -81c-36 -174.667 -114.833 -313.167 -236.5 -415.5s-267.834 -153.5 -438.501 -153.5v0zM674 211.999c87.333 0 158.665 28.666 213.998 85.999s95 143.666 119 258.999
c4 18.667 7 37.334 9 56.001s3 35.667 3 51c0 67.333 -18 119.5 -54 156.5s-87 55.5 -153 55.5c-86.667 0 -157.667 -29.167 -213 -87.5s-95.333 -146.166 -120 -263.499c-3.33301 -18 -6.16602 -36 -8.49902 -54s-3.16602 -34.667 -2.49902 -50
c0 -66.667 17.833 -118.167 53.5 -154.5s86.5 -54.5 152.5 -54.5v0zM505.999 1238l256 297h313l-360 -297h-209zM972.999 1238l256 297h313l-360 -297h-209z" />
    <glyph glyph-name="OE" unicode="&#x152;" horiz-adv-x="2048" 
d="M1005 1506c123.333 0 215.003 -33.998 275.003 -101.998l4 -4v0l15 70h299v0h662v0l-25 -131l-25 -131v0h-666v0l-64 -305v0h633l-27 -131l-27 -131v0h-633v0l-78 -379v0h676v0l-29 -131l-29 -131v0h-672v0h-299l17 83v0
c-94.667 -78.667 -210.334 -118.334 -347.001 -119.001c-144.667 0 -257.834 44.667 -339.501 134s-122.5 213.333 -122.5 372c0 36 2.66699 77 8 123s12.666 91.667 21.999 137c50 243.333 143.333 433.666 280 570.999c136 136.667 300 205 492 205zM993.003 1260
c-113.333 0 -209.166 -47.501 -287.499 -142.501s-136.166 -233.833 -173.499 -416.5c-6.66699 -30.667 -11.834 -61.667 -15.501 -93s-5.5 -59 -5.5 -83c0 -98 23.5 -174.5 70.5 -229.5s112.167 -82.5 195.5 -82.5c88 0.666992 167 30.667 237 90
c14.667 12 28.667 30 42 54c13.333 23.333 22.333 46 27 68l128 621c4.66699 23.333 5.66699 46.833 3 70.5s-8.33398 40.834 -17.001 51.501l-10 13c-44 52.667 -108.667 79 -194 79z" />
    <glyph glyph-name="oe" unicode="&#x153;" horiz-adv-x="1933" 
d="M831 1117c140.667 0 247.334 -32.332 320.001 -96.999c18 -15.333 33.667 -33.333 47 -54v0c116.667 100.667 246 151 388 151c136.667 0 240 -33.333 310 -100s105 -164.667 105 -294c0 -32 -2 -66.333 -6 -103s-10.333 -74.667 -19 -114l-7 -35v0h-746v0l-2 -14
c-2.66699 -20 -4 -39 -4 -57c0.666992 -66 17.667 -115.5 51 -148.5s83.666 -49.5 150.999 -49.5c48.667 0 93 10.5 133 31.5s68.333 48.5 85 82.5v0h290v0c-50.667 -106 -126.167 -190 -226.5 -252s-210.5 -93 -330.5 -93c-142 0 -251 33.667 -327 101
c-15.333 14 -29.333 29.333 -42 46v0c-114 -98.667 -249.667 -147.667 -407 -147c-131.333 0 -235.166 36.667 -311.499 110s-114.5 172.666 -114.5 297.999c0 22 1.66699 47.5 5 76.5s7.66602 57.167 12.999 84.5c36.667 176.667 113.334 317 230.001 421
c115.333 104 253.666 156 414.999 156zM811 876.001c-86 0 -156.5 -29.168 -211.5 -87.501s-94.833 -146.166 -119.5 -263.499c-3.33301 -18 -6.16602 -36.167 -8.49902 -54.5s-3.5 -35.166 -3.5 -50.499c0.666992 -66 18.667 -117.167 54 -153.5
s85.666 -54.5 150.999 -54.5c86.667 0 157.5 28.667 212.5 86s94.5 143.666 118.5 258.999c4 19.333 7 38.333 9 57s3 35.667 3 51c0 67.333 -17.667 119.333 -53 156c-36 36.667 -86.667 55 -152 55zM1715 658l1.00195 38.001c0 62.667 -14.833 109.167 -44.5 139.5
s-74.834 45.5 -135.501 45.5c-76.667 0 -140.334 -29.667 -191.001 -89c-29.333 -34.667 -54.333 -79.334 -75 -134.001v0h445z" />
    <glyph glyph-name="Racute" unicode="&#x154;" horiz-adv-x="1479" 
d="M156 0l303.999 1470v0h153v0h612c116 0 206.667 -27.667 272 -83s98 -132 98 -230c0 -16.667 -1.16699 -35.167 -3.5 -55.5s-5.5 -39.833 -9.5 -58.5c-25.333 -124 -88.333 -219.667 -189 -287c-31.333 -20.667 -66 -38.667 -104 -54v0c14.667 -6 27.667 -13 39 -21
c73.333 -50 99.333 -134 78 -252l-42 -239c-8.66699 -48 -10.667 -82 -6 -102s18 -36 40 -48l-8 -39h-339c-6 18 -7.16699 52.167 -3.5 102.5s10.834 103.166 21.501 158.499l26 134c12 67.333 2.5 115.333 -28.5 144s-89.833 43 -176.5 43h-308v0l-120 -583v0h-153h-153v0z
M632.999 827.001l378.999 0.000976562c75.333 0 134 15 176 45s69.667 76.333 83 139c2.66699 13.333 4.66699 25.5 6 36.5s2 21.833 2 32.5c0 49.333 -16.667 85.166 -50 107.499s-86.666 33.5 -159.999 33.5h-355v0zM929.998 1620l256 297h313l-360 -297h-209z" />
    <glyph glyph-name="racute" unicode="&#x155;" horiz-adv-x="797" 
d="M131 0l225.001 1088v0h136h137v0l-46 -221v0v0c17.333 27.333 36.333 54 57 80c90 113.333 186.667 170 290 170l69 -1l-51 -244c-24 2.66699 -52.667 4 -86 4c-86 0 -156.833 -26.167 -212.5 -78.5s-93.834 -128.5 -114.501 -228.5v0l-117 -569v0h-143h-144v0z
M587.001 1238l256 297h313l-360 -297h-209z" />
    <glyph glyph-name="Rcommaaccent" unicode="&#x156;" horiz-adv-x="1479" 
d="M156 0l303.999 1470v0h153v0h612c116 0 206.667 -27.667 272 -83s98 -132 98 -230c0 -16.667 -1.16699 -35.167 -3.5 -55.5s-5.5 -39.833 -9.5 -58.5c-25.333 -124 -88.333 -219.667 -189 -287c-31.333 -20.667 -66 -38.667 -104 -54v0c14.667 -6 27.667 -13 39 -21
c73.333 -50 99.333 -134 78 -252l-42 -239c-8.66699 -48 -10.667 -82 -6 -102s18 -36 40 -48l-8 -39h-339c-6 18 -7.16699 52.167 -3.5 102.5s10.834 103.166 21.501 158.499l26 134c12 67.333 2.5 115.333 -28.5 144s-89.833 43 -176.5 43h-308v0l-120 -583v0h-153h-153v0z
M632.999 827.001l378.999 0.000976562c75.333 0 134 15 176 45s69.667 76.333 83 139c2.66699 13.333 4.66699 25.5 6 36.5s2 21.833 2 32.5c0 49.333 -16.667 85.166 -50 107.499s-86.666 33.5 -159.999 33.5h-355v0zM556.998 -282.998l27.001 133h131h130l-42 -203
c-22 -106 -60.833 -189.667 -116.5 -251s-130.5 -103 -224.5 -125v0l25 122v0c53.333 16 92.333 42.667 117 80c17.333 25.333 32.666 62.333 45.999 111v0h-121z" />
    <glyph glyph-name="rcommaaccent" unicode="&#x157;" horiz-adv-x="797" 
d="M159 0l225.001 1088v0h136h137v0l-46 -221v0v0c17.333 27.333 36.333 54 57 80c90 113.333 186.667 170 290 170l69 -1l-51 -244c-24 2.66699 -52.667 4 -86 4c-86 0 -156.833 -26.167 -212.5 -78.5s-93.834 -128.5 -114.501 -228.5v0l-117 -569v0h-143h-144v0z
M119.001 -283l27.001 133h131h130l-42 -203c-22 -106 -60.833 -189.667 -116.5 -251s-130.5 -103 -224.5 -125v0l25 122v0c53.333 16 92.333 42.667 117 80c17.333 25.333 32.666 62.333 45.999 111v0h-121z" />
    <glyph glyph-name="Rcaron" unicode="&#x158;" horiz-adv-x="1479" 
d="M156 0l303.999 1470v0h153v0h612c116 0 206.667 -27.667 272 -83s98 -132 98 -230c0 -16.667 -1.16699 -35.167 -3.5 -55.5s-5.5 -39.833 -9.5 -58.5c-25.333 -124 -88.333 -219.667 -189 -287c-31.333 -20.667 -66 -38.667 -104 -54v0c14.667 -6 27.667 -13 39 -21
c73.333 -50 99.333 -134 78 -252l-42 -239c-8.66699 -48 -10.667 -82 -6 -102s18 -36 40 -48l-8 -39h-339c-6 18 -7.16699 52.167 -3.5 102.5s10.834 103.166 21.501 158.499l26 134c12 67.333 2.5 115.333 -28.5 144s-89.833 43 -176.5 43h-308v0l-120 -583v0h-153h-153v0z
M632.999 827.001l378.999 0.000976562c75.333 0 134 15 176 45s69.667 76.333 83 139c2.66699 13.333 4.66699 25.5 6 36.5s2 21.833 2 32.5c0 49.333 -16.667 85.166 -50 107.499s-86.666 33.5 -159.999 33.5h-355v0zM901.998 1621l-167 299h229l94 -167v0l165 167h234
l-301 -299h-127h-127z" />
    <glyph glyph-name="rcaron" unicode="&#x159;" horiz-adv-x="797" 
d="M131 0l225.001 1088v0h136h137v0l-46 -221v0v0c17.333 27.333 36.333 54 57 80c90 113.333 186.667 170 290 170l69 -1l-51 -244c-24 2.66699 -52.667 4 -86 4c-86 0 -156.833 -26.167 -212.5 -78.5s-93.834 -128.5 -114.501 -228.5v0l-117 -569v0h-143h-144v0z
M578.001 1239l-167 299h229l94 -167v0l165 167h234l-301 -299h-127h-127z" />
    <glyph glyph-name="Sacute" unicode="&#x15a;" horiz-adv-x="1366" 
d="M1169 1029c0 84 -19.6699 143.167 -59.0029 177.5s-107 51.5 -203 51.5c-77.333 0 -141.166 -17.167 -191.499 -51.5s-81.833 -82.166 -94.5 -143.499c-10 -48 4.66699 -84 44 -108s127.333 -50.667 264 -80c205.333 -44.667 338.333 -97.667 399 -159
c40.667 -41.333 61 -100 61 -176c0 -36.667 -4.66699 -77 -14 -121c-29.333 -142.667 -106 -254.334 -230 -335.001c-122.667 -80.667 -278.667 -121 -468 -121s-326.333 41 -411 123c-67.333 65.333 -100.666 157 -99.999 275c-0.666992 30 1.33301 61.667 6 95v0h294v0
c-10.667 -82.667 5.33301 -144 48 -184s113.667 -60 213 -60c98.667 0 179.167 16.667 241.5 50s99.5 79.333 111.5 138c11.333 54 0 93.667 -34 119c-34 24.667 -111 50 -231 76c-220 48 -363 102.333 -429 163c-46 42 -69 102 -69 180c0 32 4 67.333 12 106
c30 145.333 103.833 258.833 221.5 340.5s265.834 122.5 444.501 122.5c172 0 297.667 -40.667 377 -122c66 -66.667 99.333 -159 100 -277l-5 -79v0h-298zM984.997 1620l256 297h313l-360 -297h-209z" />
    <glyph glyph-name="sacute" unicode="&#x15b;" 
d="M924 762c0 50.667 -12.665 86.502 -37.998 107.502s-69 31.5 -131 31.5c-56.667 0 -102.5 -8.33301 -137.5 -25s-55.5 -39.667 -61.5 -69c-5.33301 -25.333 6 -47 34 -65c28.667 -17.333 81.667 -35 159 -53c170.667 -40 283.334 -84.667 338.001 -134
c40.667 -36.667 61 -85.334 61 -146.001c0 -22 -2.66699 -45.667 -8 -71c-23.333 -112.667 -85.166 -202 -185.499 -268s-224.833 -99 -373.5 -99c-165.333 0 -285.333 31.333 -360 94c-60.667 51.333 -91.334 123.666 -92.001 216.999l5 66v0h293v0
c-6.66699 -54.667 7.66602 -95.167 42.999 -121.5s93.666 -39.5 174.999 -39.5c53.333 0 97.166 9.83301 131.499 29.5s55.166 46.834 62.499 81.501c5.33301 26.667 -7 49 -37 67s-86 36.667 -168 56c-161.333 37.333 -267.666 80 -318.999 128
c-37.333 35.333 -56 82 -56 140c0 22.667 2.66699 46.667 8 72c22.667 109.333 80.167 196 172.5 260s205.833 96 340.5 96c156 0 269.667 -30 341 -90c56.667 -47.333 85 -113 85 -197c0 -20.667 -2 -43.334 -6 -68.001v0h-276zM687.002 1238l256 297h313l-360 -297h-209z
" />
    <glyph glyph-name="Scedilla" unicode="&#x15e;" horiz-adv-x="1366" 
d="M1169 1029c0 84 -19.6699 143.167 -59.0029 177.5s-107 51.5 -203 51.5c-77.333 0 -141.166 -17.167 -191.499 -51.5s-81.833 -82.166 -94.5 -143.499c-10 -48 4.66699 -84 44 -108s127.333 -50.667 264 -80c205.333 -44.667 338.333 -97.667 399 -159
c40.667 -41.333 61 -100 61 -176c0 -36.667 -4.66699 -77 -14 -121c-29.333 -142.667 -106 -254.334 -230 -335.001c-122.667 -80.667 -278.667 -121 -468 -121s-326.333 41 -411 123c-67.333 65.333 -100.666 157 -99.999 275c-0.666992 30 1.33301 61.667 6 95v0h294v0
c-10.667 -82.667 5.33301 -144 48 -184s113.667 -60 213 -60c98.667 0 179.167 16.667 241.5 50s99.5 79.333 111.5 138c11.333 54 0 93.667 -34 119c-34 24.667 -111 50 -231 76c-220 48 -363 102.333 -429 163c-46 42 -69 102 -69 180c0 32 4 67.333 12 106
c30 145.333 103.833 258.833 221.5 340.5s265.834 122.5 444.501 122.5c172 0 297.667 -40.667 377 -122c66 -66.667 99.333 -159 100 -277l-5 -79v0h-298zM688.997 0l-101.001 -110.999v0l60 7c54.667 0 95.667 -14.667 123 -44s36 -68 26 -116
c-12 -58 -46.167 -106.333 -102.5 -145s-121.166 -58 -194.499 -58c-40 0 -79 4.66699 -117 14s-74 22.666 -108 39.999l65 96c30.667 -10 59.5 -18 86.5 -24s48.5 -9 64.5 -9c26.667 0 51 7.66699 73 23s35.333 34.333 40 57c4 20 -0.333008 37.333 -13 52
s-29.667 22 -51 22c-8 0 -21 -1.66699 -39 -5s-33.333 -7 -46 -11l-35 41l151 171h118z" />
    <glyph glyph-name="scedilla" unicode="&#x15f;" 
d="M924 762c0 50.667 -12.665 86.502 -37.998 107.502s-69 31.5 -131 31.5c-56.667 0 -102.5 -8.33301 -137.5 -25s-55.5 -39.667 -61.5 -69c-5.33301 -25.333 6 -47 34 -65c28.667 -17.333 81.667 -35 159 -53c170.667 -40 283.334 -84.667 338.001 -134
c40.667 -36.667 61 -85.334 61 -146.001c0 -22 -2.66699 -45.667 -8 -71c-23.333 -112.667 -85.166 -202 -185.499 -268s-224.833 -99 -373.5 -99c-165.333 0 -285.333 31.333 -360 94c-60.667 51.333 -91.334 123.666 -92.001 216.999l5 66v0h293v0
c-6.66699 -54.667 7.66602 -95.167 42.999 -121.5s93.666 -39.5 174.999 -39.5c53.333 0 97.166 9.83301 131.499 29.5s55.166 46.834 62.499 81.501c5.33301 26.667 -7 49 -37 67s-86 36.667 -168 56c-161.333 37.333 -267.666 80 -318.999 128
c-37.333 35.333 -56 82 -56 140c0 22.667 2.66699 46.667 8 72c22.667 109.333 80.167 196 172.5 260s205.833 96 340.5 96c156 0 269.667 -30 341 -90c56.667 -47.333 85 -113 85 -197c0 -20.667 -2 -43.334 -6 -68.001v0h-276zM626.002 0.00195312l-101.001 -110.999v0
l60 7c54.667 0 95.667 -14.667 123 -44s36 -68 26 -116c-12 -58 -46.167 -106.333 -102.5 -145s-121.166 -58 -194.499 -58c-40 0 -79 4.66699 -117 14s-74 22.666 -108 39.999l65 96c31.333 -10 60.5 -18 87.5 -24s48.167 -9 63.5 -9c26.667 0 51 7.66699 73 23
s35.333 34.333 40 57c4 20 -0.333008 37.333 -13 52s-29.667 22 -51 22c-8 0 -21 -1.66699 -39 -5s-33.333 -7 -46 -11l-35 41l151 171h118z" />
    <glyph glyph-name="Scaron" unicode="&#x160;" horiz-adv-x="1366" 
d="M1169 1029c0 84 -19.6699 143.167 -59.0029 177.5s-107 51.5 -203 51.5c-77.333 0 -141.166 -17.167 -191.499 -51.5s-81.833 -82.166 -94.5 -143.499c-10 -48 4.66699 -84 44 -108s127.333 -50.667 264 -80c205.333 -44.667 338.333 -97.667 399 -159
c40.667 -41.333 61 -100 61 -176c0 -36.667 -4.66699 -77 -14 -121c-29.333 -142.667 -106 -254.334 -230 -335.001c-122.667 -80.667 -278.667 -121 -468 -121s-326.333 41 -411 123c-67.333 65.333 -100.666 157 -99.999 275c-0.666992 30 1.33301 61.667 6 95v0h294v0
c-10.667 -82.667 5.33301 -144 48 -184s113.667 -60 213 -60c98.667 0 179.167 16.667 241.5 50s99.5 79.333 111.5 138c11.333 54 0 93.667 -34 119c-34 24.667 -111 50 -231 76c-220 48 -363 102.333 -429 163c-46 42 -69 102 -69 180c0 32 4 67.333 12 106
c30 145.333 103.833 258.833 221.5 340.5s265.834 122.5 444.501 122.5c172 0 297.667 -40.667 377 -122c66 -66.667 99.333 -159 100 -277l-5 -79v0h-298zM956.997 1621l-167 299h229l94 -167v0l165 167h234l-301 -299h-127h-127z" />
    <glyph glyph-name="scaron" unicode="&#x161;" 
d="M924 762c0 50.667 -12.665 86.502 -37.998 107.502s-69 31.5 -131 31.5c-56.667 0 -102.5 -8.33301 -137.5 -25s-55.5 -39.667 -61.5 -69c-5.33301 -25.333 6 -47 34 -65c28.667 -17.333 81.667 -35 159 -53c170.667 -40 283.334 -84.667 338.001 -134
c40.667 -36.667 61 -85.334 61 -146.001c0 -22 -2.66699 -45.667 -8 -71c-23.333 -112.667 -85.166 -202 -185.499 -268s-224.833 -99 -373.5 -99c-165.333 0 -285.333 31.333 -360 94c-60.667 51.333 -91.334 123.666 -92.001 216.999l5 66v0h293v0
c-6.66699 -54.667 7.66602 -95.167 42.999 -121.5s93.666 -39.5 174.999 -39.5c53.333 0 97.166 9.83301 131.499 29.5s55.166 46.834 62.499 81.501c5.33301 26.667 -7 49 -37 67s-86 36.667 -168 56c-161.333 37.333 -267.666 80 -318.999 128
c-37.333 35.333 -56 82 -56 140c0 22.667 2.66699 46.667 8 72c22.667 109.333 80.167 196 172.5 260s205.833 96 340.5 96c156 0 269.667 -30 341 -90c56.667 -47.333 85 -113 85 -197c0 -20.667 -2 -43.334 -6 -68.001v0h-276zM678.002 1239l-167 299h229l94 -167v0
l165 167h234l-301 -299h-127h-127z" />
    <glyph glyph-name="Tcommaaccent" unicode="&#x162;" horiz-adv-x="1251" 
d="M487 0l250 1208v0h-450v0l29 131l29 131v0h1199v0l-25 -131l-25 -131v0h-451v0l-250 -1208v0h-153h-153v0zM453 -269l31.002 149h142h142l-41 -197c-20.667 -100.667 -60.834 -181 -120.501 -241s-140.167 -101.667 -241.5 -125v0l27 133v0
c57.333 18 98.666 42 123.999 72c14 16.667 25.333 36.667 34 60v0h-128z" />
    <glyph glyph-name="tcommaaccent" unicode="&#x163;" horiz-adv-x="682" 
d="M591 -8c-46.667 -3.33301 -105.667 -5 -177 -5c-104 0 -173.833 17.5 -209.5 52.5s-44.834 95.167 -27.501 180.5l137 663v0h-149l43 205h149v0l60 293h287l-60 -293v0h173l-43 -205h-173v0l-127 -614c-4.66699 -22.667 0.333008 -39.167 15 -49.5
s40.334 -15.5 77.001 -15.5l69 4zM216 -263l27.001 131.998h131h130l-36 -178c-19.333 -91.333 -56 -164.166 -110 -218.499s-128 -92.166 -222 -113.499v0l25 122v0c53.333 16 91.333 38 114 66c13.333 15.333 23.666 34.333 30.999 57v0h-117z" />
    <glyph glyph-name="Tcaron" unicode="&#x164;" horiz-adv-x="1251" 
d="M487 0l250 1208v0h-450v0l29 131l29 131v0h1199v0l-25 -131l-25 -131v0h-451v0l-250 -1208v0h-153h-153v0zM841 1621l-167 299h229l94 -167v0l165 167h234l-301 -299h-127h-127z" />
    <glyph glyph-name="tcaron" unicode="&#x165;" horiz-adv-x="966" 
d="M680 -8c-46.667 -3.33301 -105.667 -5 -177 -5c-104 0 -173.833 17.5 -209.5 52.5s-44.834 95.167 -27.501 180.5l137 663v0h-149l43 205h149v0l60 293h287l-60 -293v0h173l-43 -205h-173v0l-127 -614c-4.66699 -22.667 0.333008 -39.167 15 -49.5
s40.334 -15.5 77.001 -15.5l69 4zM1017 1341l27.001 133h131h130l-42 -203c-22 -106 -60.833 -189.667 -116.5 -251s-130.5 -103 -224.5 -125v0l25 122v0c53.333 16 92.333 42.667 117 80c17.333 25.333 32.666 62.333 45.999 111v0h-121z" />
    <glyph glyph-name="Umacron" unicode="&#x16a;" horiz-adv-x="1479" 
d="M1434 484c-34.667 -166.667 -113.667 -295.333 -237 -386c-122 -90 -279.333 -135 -472 -135c-181.333 0 -314.333 46 -399 138c-58.667 65.333 -88 148.333 -88 249c0 41.333 5 86 15 134l204 986v0h156h156v0l-202 -976c-6 -27.333 -8.66699 -52.333 -8 -75
c-0.666992 -50 11.666 -91 36.999 -123c36.667 -47.333 96.334 -71 179.001 -71c95.333 0 173.5 23.333 234.5 70s100.5 113 118.5 199l202 976v0h154h154v0zM798 1811h640l-33 -159h-640z" />
    <glyph glyph-name="umacron" unicode="&#x16b;" horiz-adv-x="1251" 
d="M648 1088l-139 -672.001c-14.667 -69.333 -11 -120.666 11 -153.999s63 -50 123 -50c73.333 0 135.333 22.167 186 66.5s84 105.833 100 184.5v0l130 625v0h143h144v0l-225 -1088v0h-139h-139v0l32 159v0v0c-11.333 -16 -25 -32 -41 -48
c-90 -93.333 -199.667 -140 -329 -140c-117.333 0 -202 36.667 -254 110c-33.333 47.333 -50 107.333 -50 180c0 37.333 4.66699 78.333 14 123l146 704v0h143h144v0zM603 1429h640l-33 -159h-640z" />
    <glyph glyph-name="Uring" unicode="&#x16e;" horiz-adv-x="1479" 
d="M1434 484c-34.667 -166.667 -113.667 -295.333 -237 -386c-122 -90 -279.333 -135 -472 -135c-181.333 0 -314.333 46 -399 138c-58.667 65.333 -88 148.333 -88 249c0 41.333 5 86 15 134l204 986v0h156h156v0l-202 -976c-6 -27.333 -8.66699 -52.333 -8 -75
c-0.666992 -50 11.666 -91 36.999 -123c36.667 -47.333 96.334 -71 179.001 -71c95.333 0 173.5 23.333 234.5 70s100.5 113 118.5 199l202 976v0h154h154v0zM1065 1548c-62 0 -110.332 20.667 -144.999 62s-45.667 91.666 -33 150.999c12 59.333 43.667 109.666 95 150.999
s108 62 170 62s110 -20.667 144 -62s45 -91.666 33 -150.999c-12.667 -59.333 -44.334 -109.666 -95.001 -150.999s-107 -62 -169 -62v0zM1087 1662c30 0 57.334 9.5 82.001 28.5s40 42.5 46 70.5c5.33301 28 -0.333984 51.5 -17.001 70.5s-40 28.5 -70 28.5
s-57.333 -9.5 -82 -28.5s-39.667 -42.5 -45 -70.5c-6 -28 -0.666992 -51.5 16 -70.5s40 -28.5 70 -28.5v0z" />
    <glyph glyph-name="uring" unicode="&#x16f;" horiz-adv-x="1251" 
d="M648 1088l-139 -672.001c-14.667 -69.333 -11 -120.666 11 -153.999s63 -50 123 -50c73.333 0 135.333 22.167 186 66.5s84 105.833 100 184.5v0l130 625v0h143h144v0l-225 -1088v0h-139h-139v0l32 159v0v0c-11.333 -16 -25 -32 -41 -48
c-90 -93.333 -199.667 -140 -329 -140c-117.333 0 -202 36.667 -254 110c-33.333 47.333 -50 107.333 -50 180c0 37.333 4.66699 78.333 14 123l146 704v0h143h144v0zM883 1166c-62 0 -110.332 20.667 -144.999 62s-45.667 91.666 -33 150.999
c12 59.333 43.667 109.666 95 150.999s108 62 170 62s110 -20.667 144 -62s45 -91.666 33 -150.999c-12.667 -59.333 -44.334 -109.666 -95.001 -150.999s-107 -62 -169 -62v0zM905.001 1280c30 0 57.334 9.5 82.001 28.5s40 42.5 46 70.5
c5.33301 28 -0.333984 51.5 -17.001 70.5s-40 28.5 -70 28.5s-57.333 -9.5 -82 -28.5s-39.667 -42.5 -45 -70.5c-6 -28 -0.666992 -51.5 16 -70.5s40 -28.5 70 -28.5v0z" />
    <glyph glyph-name="Uhungarumlaut" unicode="&#x170;" horiz-adv-x="1479" 
d="M1434 484c-34.667 -166.667 -113.667 -295.333 -237 -386c-122 -90 -279.333 -135 -472 -135c-181.333 0 -314.333 46 -399 138c-58.667 65.333 -88 148.333 -88 249c0 41.333 5 86 15 134l204 986v0h156h156v0l-202 -976c-6 -27.333 -8.66699 -52.333 -8 -75
c-0.666992 -50 11.666 -91 36.999 -123c36.667 -47.333 96.334 -71 179.001 -71c95.333 0 173.5 23.333 234.5 70s100.5 113 118.5 199l202 976v0h154h154v0zM675 1620l256 297h313l-360 -297h-209zM1142 1620l256 297h313l-360 -297h-209z" />
    <glyph glyph-name="uhungarumlaut" unicode="&#x171;" horiz-adv-x="1251" 
d="M648 1088l-139 -672.001c-14.667 -69.333 -11 -120.666 11 -153.999s63 -50 123 -50c73.333 0 135.333 22.167 186 66.5s84 105.833 100 184.5v0l130 625v0h143h144v0l-225 -1088v0h-139h-139v0l32 159v0v0c-11.333 -16 -25 -32 -41 -48
c-90 -93.333 -199.667 -140 -329 -140c-117.333 0 -202 36.667 -254 110c-33.333 47.333 -50 107.333 -50 180c0 37.333 4.66699 78.333 14 123l146 704v0h143h144v0zM503 1238l256 297h313l-360 -297h-209zM970 1238l256 297h313l-360 -297h-209z" />
    <glyph glyph-name="Uogonek" unicode="&#x172;" horiz-adv-x="1479" 
d="M1434 484c-34.667 -166.667 -113.667 -295.333 -237 -386c-122 -90 -279.333 -135 -472 -135c-181.333 0 -314.333 46 -399 138c-58.667 65.333 -88 148.333 -88 249c0 41.333 5 86 15 134l204 986v0h156h156v0l-202 -976c-6 -27.333 -8.66699 -52.333 -8 -75
c-0.666992 -50 11.666 -91 36.999 -123c36.667 -47.333 96.334 -71 179.001 -71c95.333 0 173.5 23.333 234.5 70s100.5 113 118.5 199l202 976v0h154h154v0zM487 -275.999c12.667 60 45.168 115.331 97.501 165.998s115.5 87.334 189.5 110.001h176
c-75.333 -40 -135.833 -81.5 -181.5 -124.5s-72.5 -84.5 -80.5 -124.5c-6 -28.667 -2.16699 -53 11.5 -73s33.167 -30 58.5 -30c26 0 53.333 3.33301 82 10s55.334 15.667 80.001 27l15 -102c-40 -15.333 -81.667 -27.666 -125 -36.999c-42 -9.33301 -78.333 -14 -109 -14
c-72.667 0 -129.334 18.333 -170.001 55c-40.667 36 -55.334 81.667 -44.001 137z" />
    <glyph glyph-name="uogonek" unicode="&#x173;" horiz-adv-x="1251" 
d="M648 1088l-139 -672.001c-14.667 -69.333 -11 -120.666 11 -153.999s63 -50 123 -50c73.333 0 135.333 22.167 186 66.5s84 105.833 100 184.5v0l130 625v0h143h144v0l-225 -1088v0h-139h-139v0l32 159v0v0c-11.333 -16 -25 -32 -41 -48
c-90 -93.333 -199.667 -140 -329 -140c-117.333 0 -202 36.667 -254 110c-33.333 47.333 -50 107.333 -50 180c0 37.333 4.66699 78.333 14 123l146 704v0h143h144v0zM561 -276.001c12.667 60 45.168 115.331 97.501 165.998s115.5 87.334 189.5 110.001h176
c-75.333 -40 -135.833 -81.5 -181.5 -124.5s-72.5 -84.5 -80.5 -124.5c-6 -28.667 -2.16699 -53 11.5 -73s33.167 -30 58.5 -30c26 0 53.333 3.33301 82 10s55.334 15.667 80.001 27l15 -102c-40 -15.333 -81.667 -27.666 -125 -36.999c-42 -9.33301 -78.333 -14 -109 -14
c-72.667 0 -129.334 18.333 -170.001 55c-40.667 36 -55.334 81.667 -44.001 137z" />
    <glyph glyph-name="Ydieresis" unicode="&#x178;" horiz-adv-x="1366" 
d="M652 556l-308 914v0h181h181v0l167 -634v0l424 634v0h173h174v0l-686 -913v0l-115 -557h-153h-153zM747 1874h258l-49 -235h-258zM1149 1874h258l-49 -235h-258z" />
    <glyph glyph-name="Zacute" unicode="&#x179;" horiz-adv-x="1251" 
d="M100 241l964 967v0h-737v0l29 131l29 131v0h1121l-25 -120l-25 -121l-965 -967v0h762v0l-29 -131l-29 -131v0h-1144l24 120zM870 1620l256 297h313l-360 -297h-209z" />
    <glyph glyph-name="zacute" unicode="&#x17a;" horiz-adv-x="1024" 
d="M93 234l686 620l8 7v0h-518v0l25 113l26 114v0h877l-24 -117l-25 -117l-686 -619v0h564v0l-22 -117l-22 -118v0h-941l26 117zM671 1238l256 297h313l-360 -297h-209z" />
    <glyph glyph-name="Zdotaccent" unicode="&#x17b;" horiz-adv-x="1251" 
d="M100 241l964 967v0h-737v0l29 131l29 131v0h1121l-25 -120l-25 -121l-965 -967v0h762v0l-29 -131l-29 -131v0h-1144l24 120zM899 1875h258l-49 -236h-258z" />
    <glyph glyph-name="zdotaccent" unicode="&#x17c;" horiz-adv-x="1024" 
d="M93 234l686 620l8 7v0h-518v0l25 113l26 114v0h877l-24 -117l-25 -117l-686 -619v0h564v0l-22 -117l-22 -118v0h-941l26 117zM712 1493h258l-49 -236h-258z" />
    <glyph glyph-name="Zcaron" unicode="&#x17d;" horiz-adv-x="1251" 
d="M100 241l964 967v0h-737v0l29 131l29 131v0h1121l-25 -120l-25 -121l-965 -967v0h762v0l-29 -131l-29 -131v0h-1144l24 120zM842 1621l-167 299h229l94 -167v0l165 167h234l-301 -299h-127h-127z" />
    <glyph glyph-name="zcaron" unicode="&#x17e;" horiz-adv-x="1024" 
d="M93 234l686 620l8 7v0h-518v0l25 113l26 114v0h877l-24 -117l-25 -117l-686 -619v0h564v0l-22 -117l-22 -118v0h-941l26 117zM662 1239l-167 299h229l94 -167v0l165 167h234l-301 -299h-127h-127z" />
    <glyph glyph-name="florin" unicode="&#x192;" 
d="M861 774l-314.996 -835.999c-46 -122 -106.5 -212.5 -181.5 -271.5s-166.833 -88.5 -275.5 -88.5c-29.333 0 -58 3.16699 -86 9.5s-62.667 17.833 -104 34.5v0l92 218v0c19.333 -12.667 37.166 -21.5 53.499 -26.5s35.166 -7.5 56.499 -7.5
c42.667 0 76.167 12.667 100.5 38s50.166 74.666 77.499 147.999l295 782v0h-245l41 205h281v0l70 183c44.667 118.667 104.167 206.667 178.5 264s165.833 86 274.5 86c30.667 0 62.167 -3.66699 94.5 -11s63.833 -18.333 94.5 -33v0l-92 -217v0
c-18 12 -35.333 20.5 -52 25.5s-37 7.5 -61 7.5c-40.667 0 -72.834 -12 -96.501 -36s-48.5 -70.667 -74.5 -140l-49 -129v0h245l-41 -205h-281z" />
    <glyph glyph-name="circumflex" unicode="&#x2c6;" horiz-adv-x="682" 
d="M797 1537l167 -299h-229l-94 167v0l-165 -167h-234l301 299h127h127z" />
    <glyph glyph-name="caron" unicode="&#x2c7;" horiz-adv-x="682" 
d="M472 1239l-167 299h229l95 -167v0l164 167h234l-301 -299h-127h-127z" />
    <glyph glyph-name="uni02C9" unicode="&#x2c9;" horiz-adv-x="682" 
d="M306 1410h640l-32 -159h-640z" />
    <glyph glyph-name="breve" unicode="&#x2d8;" horiz-adv-x="682" 
d="M576 1238c-96 0 -165.666 24.667 -208.999 74s-61.333 123.666 -54 222.999h135c-0.666992 -50.667 13 -87.334 41 -110.001s73.667 -34 137 -34c72.667 0 127.167 10.833 163.5 32.5s62.5 58.834 78.5 111.501h135c-29.333 -99.333 -80 -173.666 -152 -222.999
c-70.667 -49.333 -162.334 -74 -275.001 -74z" />
    <glyph glyph-name="dotaccent" unicode="&#x2d9;" horiz-adv-x="682" 
d="M503 1493h258l-49 -236h-258z" />
    <glyph glyph-name="ring" unicode="&#x2da;" horiz-adv-x="682" 
d="M587 1166c-62 0 -109.999 20.667 -143.999 62s-45 91.666 -33 150.999c12.667 59.333 44.5 109.666 95.5 150.999s107.5 62 169.5 62s110.167 -20.667 144.5 -62s45.166 -91.666 32.499 -150.999c-12 -59.333 -43.667 -109.666 -95 -150.999s-108 -62 -170 -62v0z
M611.001 1280c30 0 57.167 9.5 81.5 28.5s39.5 42.5 45.5 70.5s0.666992 51.5 -16 70.5s-40 28.5 -70 28.5s-57.333 -9.5 -82 -28.5s-40 -42.5 -46 -70.5s-0.5 -51.5 16.5 -70.5s40.5 -28.5 70.5 -28.5v0z" />
    <glyph glyph-name="ogonek" unicode="&#x2db;" horiz-adv-x="682" 
d="M107 -276c12.667 60 45.168 115.331 97.501 165.998s115.5 87.334 189.5 110.001h176c-75.333 -40 -135.833 -81.5 -181.5 -124.5s-72.5 -84.5 -80.5 -124.5c-6 -28.667 -2.16699 -53 11.5 -73s33.167 -30 58.5 -30c26 0 53.333 3.33301 82 10s55.334 15.667 80.001 27
l15 -102c-40 -15.333 -81.667 -27.666 -125 -36.999c-42 -9.33301 -78.333 -14 -109 -14c-72.667 0 -129.334 18.333 -170.001 55c-40.667 36 -55.334 81.667 -44.001 137z" />
    <glyph glyph-name="tilde" unicode="&#x2dc;" horiz-adv-x="682" 
d="M231 1253c29.333 76 70.8359 136.333 124.503 181s111.834 67 174.501 67c17.333 0 40.666 -4.16699 69.999 -12.5s56.666 -18.5 81.999 -30.5c20 -8.66699 40.5 -16.167 61.5 -22.5s37.167 -9.5 48.5 -9.5c22.667 0 45 8.16699 67 24.5s37.667 36.5 47 60.5h130
c-26.667 -78 -64.167 -138.833 -112.5 -182.5s-101.833 -65.5 -160.5 -65.5c-20.667 0 -48.334 4.16699 -83.001 12.5s-66.334 18.5 -95.001 30.5c-22 8.66699 -43.5 16.167 -64.5 22.5s-35.833 9.5 -44.5 9.5c-22 0 -44.167 -8.16699 -66.5 -24.5s-38.5 -36.5 -48.5 -60.5
h-130z" />
    <glyph glyph-name="hungarumlaut" unicode="&#x2dd;" horiz-adv-x="682" 
d="M202 1238l257 297h313l-361 -297h-209zM669 1238l257 297h313l-361 -297h-209z" />
    <glyph glyph-name="pi" unicode="&#x3c0;" horiz-adv-x="1246" 
d="M112 692c60.667 106.667 117.833 177.832 171.5 213.499s130.167 53.5 229.5 53.5l338 1c60 0 123.667 0.833008 191 2.5s116 3.83398 146 6.50098l-30 -164h-301c-21.333 -114 -31 -222.667 -29 -326s16.333 -214.666 43 -333.999c14.667 -66 17 -110.833 7 -134.5
s-36 -35.5 -78 -35.5c-42.667 0 -75.167 19.667 -97.5 59s-33.5 96.666 -33.5 171.999c0 63.333 7.66699 141 23 233s41.333 214 78 366h-148l-116 -652c-12 -70 -27 -117.167 -45 -141.5s-46.667 -36.5 -86 -36.5c-44 0 -69.5 15 -76.5 45s2.5 85 28.5 165l211 620h-94
c-50 0 -93.5 -10.5 -130.5 -31.5s-83.833 -61.5 -140.5 -121.5z" />
    <glyph glyph-name="endash" unicode="&#x2013;" 
d="M145 679h1138l-47 -210h-1138z" />
    <glyph glyph-name="emdash" unicode="&#x2014;" horiz-adv-x="2048" 
d="M141 679h2048l-43 -210h-2048z" />
    <glyph glyph-name="quoteleft" unicode="&#x2018;" horiz-adv-x="569" 
d="M654 1058l-26.999 -129.998h-145h-144l40 196c21.333 100.667 61.166 180.667 119.499 240s138.166 100.666 239.499 123.999v0l-22 -106v0c-67.333 -20.667 -115.666 -49.667 -144.999 -87c-20 -24.667 -36.667 -60.334 -50 -107.001v0h16h145z" />
    <glyph glyph-name="quoteright" unicode="&#x2019;" horiz-adv-x="569" 
d="M425 1340l27.002 129.998h145h144l-41 -196c-20.667 -100.667 -60.334 -180.667 -119.001 -240s-138.334 -100.666 -239.001 -123.999v0l22 106v0c66.667 20.667 115 49.667 145 87c20 24.667 36.667 60.334 50 107.001v0h-16h-145z" />
    <glyph glyph-name="quotesinglbase" unicode="&#x201a;" horiz-adv-x="569" 
d="M166 130l27 129.998h145h144l-40 -196c-20.667 -100.667 -60.167 -180.667 -118.5 -240s-138.166 -100.666 -239.499 -123.999v0l22 106v0c67.333 20.667 115.666 49.667 144.999 87c20 24.667 36.667 60.334 50 107.001v0h-16h-145z" />
    <glyph glyph-name="quotedblleft" unicode="&#x201c;" horiz-adv-x="1024" 
d="M644 1058l-26.999 -129.998h-145h-144l40 196c21.333 100.667 61.166 180.667 119.499 240s138.166 100.666 239.499 123.999v0l-22 -106v0c-67.333 -20.667 -115.666 -49.667 -144.999 -87c-20 -24.667 -36.667 -60.334 -50 -107.001v0h16h145zM1117 1058
l-26.999 -129.998h-145h-144l40 196c21.333 100.667 61.166 180.667 119.499 240s138.166 100.666 239.499 123.999v0l-22 -106v0c-67.333 -20.667 -115.666 -49.667 -144.999 -87c-20 -24.667 -36.667 -60.334 -50 -107.001v0h16h145z" />
    <glyph glyph-name="quotedblright" unicode="&#x201d;" horiz-adv-x="1024" 
d="M415 1340l27.002 129.998h145h144l-41 -196c-20.667 -100.667 -60.334 -180.667 -119.001 -240s-138.334 -100.666 -239.001 -123.999v0l22 106v0c66.667 20.667 115 49.667 145 87c20 24.667 36.667 60.334 50 107.001v0h-16h-145zM888.002 1340l27.002 129.998h145h144
l-41 -196c-20.667 -100.667 -60.334 -180.667 -119.001 -240s-138.334 -100.666 -239.001 -123.999v0l22 106v0c66.667 20.667 115 49.667 145 87c20 24.667 36.667 60.334 50 107.001v0h-16h-145z" />
    <glyph glyph-name="quotedblbase" unicode="&#x201e;" horiz-adv-x="1024" 
d="M156 130l27 129.998h145h144l-40 -196c-20.667 -100.667 -60.167 -180.667 -118.5 -240s-138.166 -100.666 -239.499 -123.999v0l22 106v0c67.333 20.667 115.666 49.667 144.999 87c20 24.667 36.667 60.334 50 107.001v0h-16h-145zM629 129.998l27 129.998h145h144
l-40 -196c-20.667 -100.667 -60.167 -180.667 -118.5 -240s-138.166 -100.666 -239.499 -123.999v0l22 106v0c67.333 20.667 115.666 49.667 144.999 87c20 24.667 36.667 60.334 50 107.001v0h-16h-145z" />
    <glyph glyph-name="dagger" unicode="&#x2020;" 
d="M290 1028h361v0l92 442h275l-92 -442v0h362l-48 -234h-362v0l-237 -1149h-275l237 1149v0h-361z" />
    <glyph glyph-name="daggerdbl" unicode="&#x2021;" 
d="M292 1048h363v0l87 422h272l-87 -422v0h363l-49 -234h-363v0l-101 -487v0h363l-48 -234h-363v0l-92 -448h-272l92 448v0h-363l48 234h363v0l101 487v0h-363z" />
    <glyph glyph-name="bullet" unicode="&#x2022;" horiz-adv-x="717" 
d="M577 1074c94.667 0 167.665 -32.667 218.998 -98s67.333 -145.333 48 -240s-68.666 -174.667 -147.999 -240c-78 -64.667 -164.333 -97 -259 -97s-167.667 32.5 -219 97.5s-67.333 144.833 -48 239.5s68.333 174.667 147 240s165.334 98 260.001 98z" />
    <glyph glyph-name="ellipsis" unicode="&#x2026;" horiz-adv-x="2048" 
d="M249 298h308l-61 -298h-308zM937 298h308l-61 -298h-308zM1626 298h308l-61 -298h-308z" />
    <glyph glyph-name="perthousand" unicode="&#x2030;" horiz-adv-x="2048" 
d="M493 798c-77.333 0 -141.5 24.166 -192.5 72.499s-76.5 109.166 -76.5 182.499c0 10 0.666992 21.667 2 35s3 25.333 5 36c19.333 92.667 67.5 170.834 144.5 234.501s161.5 95.5 253.5 95.5c77.333 0 141.5 -24.333 192.5 -73s76.5 -110 76.5 -184
c0 -10 -0.666992 -21.833 -2 -35.5s-3.33301 -26.167 -6 -37.5c-18.667 -91.333 -66.667 -168.666 -144 -231.999c-76 -62.667 -160.333 -94 -253 -94v0zM588 1256c-36 0 -67.999 -12.166 -95.999 -36.499s-46 -55.833 -54 -94.5c-2 -12.667 -3 -23.667 -3 -33
c0 -28.667 9.16699 -51.834 27.5 -69.501s42.166 -26.5 71.499 -26.5c36 0 68 12 96 36s45.667 55 53 93c2.66699 12.667 4 23.667 4 33c0 29.333 -9 53 -27 71s-42 27 -72 27v0zM156.001 -40l1124 1494h154l-1124 -1494h-154zM963.001 -11
c-77.333 0 -141.667 24.167 -193 72.5s-77 109.166 -77 182.499c0 10 0.666992 21.667 2 35s3.33301 25.333 6 36c19.333 92.667 67.333 170.834 144 234.501s161 95.5 253 95.5c77.333 0 141.666 -24.333 192.999 -73s77 -110 77 -184c0 -10 -0.833008 -21.833 -2.5 -35.5
s-3.5 -26.167 -5.5 -37.5c-19.333 -91.333 -67.166 -168.5 -143.499 -231.5s-160.833 -94.5 -253.5 -94.5v0zM1057 447c-36 0 -67.832 -12.166 -95.499 -36.499s-45.5 -55.833 -53.5 -94.5c-2.66699 -12.667 -4 -23.667 -4 -33c0 -28.667 9.16699 -51.834 27.5 -69.501
s42.166 -26.5 71.499 -26.5c36 0 68 12 96 36s46 55 54 93c2.66699 12.667 4 23.667 4 33c0 29.333 -9.16699 53 -27.5 71s-42.5 27 -72.5 27v0zM1724 -10.999c-77.333 0 -141.667 24.167 -193 72.5s-77 109.166 -77 182.499c0 10 0.666992 21.667 2 35s3.33301 25.333 6 36
c19.333 92.667 67.333 170.834 144 234.501s161 95.5 253 95.5c77.333 0 141.666 -24.333 192.999 -73s77 -110 77 -184c0 -10 -0.833008 -21.833 -2.5 -35.5s-3.5 -26.167 -5.5 -37.5c-19.333 -91.333 -67.166 -168.5 -143.499 -231.5s-160.833 -94.5 -253.5 -94.5v0z
M1818 447.001c-36 0 -67.832 -12.166 -95.499 -36.499s-45.5 -55.833 -53.5 -94.5c-2.66699 -12.667 -4 -23.667 -4 -33c0 -28.667 9.16699 -51.834 27.5 -69.501s42.166 -26.5 71.499 -26.5c36 0 68 12 96 36s46 55 54 93c2.66699 12.667 4 23.667 4 33
c0 29.333 -9.16699 53 -27.5 71s-42.5 27 -72.5 27v0z" />
    <glyph glyph-name="guilsinglleft" unicode="&#x2039;" horiz-adv-x="682" 
d="M673 751l-245 -178v0l171 -179l-49 -237l-284 296l25 120l25 120l406 295z" />
    <glyph glyph-name="guilsinglright" unicode="&#x203a;" horiz-adv-x="682" 
d="M252 394l245 178v0l-171 179l49 237l284 -296l-25 -120l-25 -120l-406 -295z" />
    <glyph glyph-name="fraction" unicode="&#x2044;" horiz-adv-x="342" 
d="M998 1455l-1195 -1499h-158l1195 1499h158z" />
    <glyph glyph-name="uni2074" unicode="&#x2074;" horiz-adv-x="682" 
d="M544 768h-366l19 80l20 81l491 500h96h96l-122 -505v0h107l-37 -156h-107v0l-45 -187h-197l45 187v0zM581 924l52 217v0v0l-203 -212l-6 -5v0h157z" />
    <glyph glyph-name="Euro" unicode="&#x20ac;" 
d="M1201 429c-40.667 -152.667 -107.668 -268.669 -201.001 -348.002c-91.333 -79.333 -205.666 -119 -342.999 -119c-124 0 -219 38.167 -285 114.5s-99 186.5 -99 330.5v28h-163l88 214h99l10 54l12 54h-143l89 214h116c44.667 122 99.667 220.667 165 296
c108 124.667 244.333 187 409 187c132 0 229.667 -39.667 293 -119c54.667 -69.333 82 -165.333 82 -288l-2 -61v0h-288v0c8.66699 76.667 2.83398 132.834 -17.499 168.501s-56.833 53.5 -109.5 53.5c-70.667 0 -131.667 -41.333 -183 -124
c-18.667 -31.333 -37.334 -69 -56.001 -113h299l-89 -214h-274l-10 -53l-11 -55h250l-88 -214h-189l1 -23c-0.666992 -69.333 10.166 -120.666 32.499 -153.999s56.5 -50 102.5 -50c44.667 0 86.834 20.333 126.501 61s69.167 94 88.5 160v0h288z" />
    <glyph glyph-name="trademark" unicode="&#x2122;" horiz-adv-x="2048" 
d="M469 632l137 660v0h-239v0l19 89l21 89v0h702v0l-18 -89l-16 -89v0h-238v0l-137 -660v0h-115h-116v0zM1296 632h-108h-108v0l174 838v0h156h157v0l84 -519v0v0l313 519v0h156h157v0l-174 -838v0h-110h-111v0l129 619v0l-336 -619h-86h-86l-85 586v0z" />
    <glyph glyph-name="uni2126" unicode="&#x2126;" horiz-adv-x="1246" 
d="M599 0l-413.002 -0.00195312l-74 410l74 12c22 -92 42.5 -149 61.5 -171s57.167 -34 114.5 -36h79c-21.333 40.667 -51.166 94.334 -89.499 161.001l-109.5 184c-43.333 70.667 -77.666 141.167 -102.999 211.5s-38 130.5 -38 180.5
c0 139.333 49.833 250.833 149.5 334.5s234.167 126.834 403.5 129.501c160.667 0 293.167 -43 397.5 -129s156.5 -195.333 156.5 -328c0 -52.667 -12.5 -114.334 -37.5 -185.001s-59.5 -142 -103.5 -214l-95.5 -162l-103.5 -183h79c50 -0.666992 87.333 13.5 112 42.5
s46 83.833 64 164.5l73 -12l-74 -410h-412c81.333 225.333 124.5 345.666 129.5 360.999l30.5 97c30.667 98.667 54.167 190.834 70.5 276.501s24.5 158.167 24.5 217.5c0 108 -28.833 196.833 -86.5 266.5s-132.5 105.834 -224.5 108.501
c-92 -2.66699 -166.667 -38.334 -224 -107.001s-86 -157 -86 -265c0 -52 9.16699 -126 27.5 -222s40.833 -187.667 67.5 -275c16 -51.333 39.333 -121.166 70 -209.499z" />
    <glyph glyph-name="partialdiff" unicode="&#x2202;" horiz-adv-x="1020" 
d="M81 385c0 156 46.5078 294.833 139.508 416.5s198.833 182.5 317.5 182.5c32 0 64.167 -5.33301 96.5 -16s67.166 -27.334 104.499 -50.001c14 126.667 8.5 227.334 -16.5 302.001s-65.833 112 -122.5 112c-18.667 0 -38.834 -9.5 -60.501 -28.5
s-38.834 -42.5 -51.501 -70.5c-19.333 -42 -35.833 -69.5 -49.5 -82.5s-33.834 -19.5 -60.501 -19.5c-40 0 -68.833 16.333 -86.5 49s-16.834 68 2.49902 106c21.333 41.333 56.166 76.333 104.499 105s97.166 43 146.499 43c130.667 0 228.667 -51.667 294 -155
s97.666 -258.333 96.999 -465c0 -248 -48.5 -451 -145.5 -609s-221.167 -237 -372.5 -237c-98.667 0 -179.5 39 -242.5 117s-94.5 178 -94.5 300zM271.008 324c0 -76 14.667 -140.334 44 -193.001s65.333 -79 108 -79c72 0 133.333 59.333 184 178s76 262.334 76 431.001
c0 80 -13 140 -39 180s-65 60 -117 60c-71.333 0 -131.833 -55.833 -181.5 -167.5s-74.5 -248.167 -74.5 -409.5z" />
    <glyph glyph-name="uni2206" unicode="&#x2206;" horiz-adv-x="1360" 
d="M740 1391l582 -1391h-1285zM667 1077l-446 -883h799z" />
    <glyph glyph-name="product" unicode="&#x220f;" horiz-adv-x="2039" 
d="M197 -315v65c100.667 11.333 166.5 40.833 197.5 88.5s46.5 144.167 46.5 289.5v901c2 144.667 -12.5 240.834 -43.5 288.501s-97.833 77.167 -200.5 88.5v65h1645v-65c-100.667 -11.333 -166.5 -40.833 -197.5 -88.5s-46.5 -143.834 -46.5 -288.501v-901
c0 -145.333 15.5 -241.833 46.5 -289.5s96.833 -77.167 197.5 -88.5v-65h-704v65c104.667 11.333 172 40.333 202 87s44 143.667 42 291v1262h-725v-1262c0 -145.333 15.5 -241.833 46.5 -289.5s96.833 -77.167 197.5 -88.5v-65h-704z" />
    <glyph glyph-name="summation" unicode="&#x2211;" horiz-adv-x="2039" 
d="M416 -315l491 838l-482 948h1119l46 -366l-70 -14l-17 39c-36 94.667 -83.5 161.5 -142.5 200.5s-142.5 58.5 -250.5 58.5h-403l370 -740l-451 -756h524c92 0 165 17 219 51s103.667 94 149 180l22 41l70 -21l-117 -459h-1077z" />
    <glyph glyph-name="minus" unicode="&#x2212;" horiz-adv-x="1196" 
d="M212 630h1030l-47 -226h-1030z" />
    <glyph glyph-name="uni2215" unicode="&#x2215;" horiz-adv-x="342" 
d="M998 1455l-1195 -1499h-158l1195 1499h158z" />
    <glyph glyph-name="uni2219" unicode="&#x2219;" horiz-adv-x="569" 
d="M307 856h304l-62 -300h-304z" />
    <glyph glyph-name="radical" unicode="&#x221a;" horiz-adv-x="1473" 
d="M56 438l298 194l506 -750l480 1647h382v-86h-281l-553 -1817h-74l-570 821l-145 -105z" />
    <glyph glyph-name="infinity" unicode="&#x221e;" horiz-adv-x="2039" 
d="M283 569c0 119.333 38.832 220.001 116.499 302.001s172.834 123 285.501 123c81.333 0 151.5 -20.167 210.5 -60.5s117.5 -107.833 175.5 -202.5c49.333 72.667 101.833 127 157.5 163s114.834 54 177.501 54c102 0 185.5 -35.167 250.5 -105.5
s97.5 -160.833 97.5 -271.5c0 -108 -32.333 -197.667 -97 -269s-145.667 -107 -243 -107c-70 0 -133 18.833 -189 56.5s-101 91.5 -135 161.5c-70.667 -104 -132.834 -174 -186.501 -210s-122.5 -54 -206.5 -54c-116 0 -214 40.667 -294 122s-120 180.666 -120 297.999z
M393.999 567.001c0 -71.333 23.002 -131.667 69.002 -181s102.333 -74 169 -74c72.667 0 137.167 24.333 193.5 73s109.5 126 159.5 232c-42 75.333 -87.833 129.833 -137.5 163.5s-109.834 50.5 -180.501 50.5c-76.667 0 -141.334 -25.5 -194.001 -76.5
s-79 -113.5 -79 -187.5zM1643 569c0 64.667 -19.833 116.834 -59.5 156.501s-92.167 59.5 -157.5 59.5c-56 0 -104.667 -16.833 -146 -50.5s-82 -89.834 -122 -168.501c27.333 -66.667 64.5 -118 111.5 -154s100.167 -54 159.5 -54c65.333 0 117.333 19 156 57
s58 89.333 58 154z" />
    <glyph glyph-name="integral" unicode="&#x222b;" horiz-adv-x="2039" 
d="M752 -319c0 28 9.16504 52.166 27.498 72.499s40.166 30.5 65.499 30.5c23.333 0 43.333 -8.5 60 -25.5s25 -37.5 25 -61.5l-9 -60c-0.666992 -6 1.33301 -11.167 6 -15.5s11 -6.5 19 -6.5c34.667 -0.666992 57.834 28.333 69.501 87s9.16699 132.667 -7.5 222
c-24 127.333 -47 269 -69 425s-37 283.667 -45 383c-22 284.667 -14.333 495.334 23 632.001s106 205 206 205c44 0 81.333 -14 112 -42s46 -62 46 -102c0 -34.667 -7.83301 -60.667 -23.5 -78s-39.167 -26 -70.5 -26c-28 0 -49 6.33301 -63 19s-21 32 -21 58
c0 6.66699 5.33301 30.667 16 72c1.33301 5.33301 -0.5 10 -5.5 14s-11.833 6 -20.5 6c-51.333 0 -78 -43.5 -80 -130.5s19.667 -250.833 65 -491.5c36 -189.333 58.667 -389.5 68 -600.5s3 -374.833 -19 -491.5c-15.333 -80 -40.166 -140 -74.499 -180
s-78.166 -60 -131.499 -60c-47.333 0 -87.333 14 -120 42s-49 62.333 -49 103z" />
    <glyph glyph-name="approxequal" unicode="&#x2248;" horiz-adv-x="2039" 
d="M414 275c38 66.667 90.333 123.167 157 169.5s129.334 69.5 188.001 69.5c36.667 0 86.667 -7.16699 150 -21.5s135.333 -34.5 216 -60.5c45.333 -14.667 94.166 -27 146.499 -37s93.5 -15 123.5 -15c40 0 84 11.833 132 35.5s86.667 52.5 116 86.5l37 -22
c-32 -76.667 -77.333 -137.5 -136 -182.5s-122 -67.5 -190 -67.5c-20.667 0 -55.667 4.66699 -105 14s-99.333 21 -150 35c-108 29.333 -192.833 50.833 -254.5 64.5s-105.167 20.5 -130.5 20.5c-42.667 0 -90 -11.667 -142 -35s-94.333 -52 -127 -86zM414 626
c38 66.667 90.333 123.167 157 169.5s129.334 69.5 188.001 69.5c36.667 0 86.667 -7.16699 150 -21.5s135.333 -34.5 216 -60.5c45.333 -14.667 94.166 -27 146.499 -37s93.5 -15 123.5 -15c40 0 84 11.833 132 35.5s86.667 52.5 116 86.5l37 -22
c-32 -76.667 -77.333 -137.5 -136 -182.5s-122 -67.5 -190 -67.5c-20.667 0 -55.667 4.66699 -105 14s-99.333 21 -150 35c-108 29.333 -192.833 50.833 -254.5 64.5s-105.167 20.5 -130.5 20.5c-42.667 0 -90 -11.667 -142 -35s-94.333 -52 -127 -86z" />
    <glyph glyph-name="notequal" unicode="&#x2260;" horiz-adv-x="2039" 
d="M410 -93l318 372h-321v135h437l236 276h-673v135h788l317 367h164l-315 -367h312v-135h-427l-236 -276h663v-135h-779l-318 -372h-166z" />
    <glyph glyph-name="lessequal" unicode="&#x2264;" horiz-adv-x="2039" 
d="M1683 1235v-135l-1063 -410l1063 -309v-135l-1266 377v135zM417 135h1266v-135h-1266v135z" />
    <glyph glyph-name="greaterequal" unicode="&#x2265;" horiz-adv-x="2039" 
d="M417 1235l1266 -477v-135l-1266 -377v135l1063 309l-1063 410v135zM417 135h1266v-135h-1266v135z" />
    <glyph glyph-name="lozenge" unicode="&#x25ca;" horiz-adv-x="1171" 
d="M530 1423h110l404 -712l-404 -711h-110l-404 711zM585 1324l-349 -613l349 -615l349 615z" />
    <glyph glyph-name="uniEFED" unicode="&#xefed;" horiz-adv-x="682" 
d="M569 1875h258l-49 -236h-258z" />
    <glyph glyph-name="uniEFEE" unicode="&#xefee;" horiz-adv-x="682" 
d="M603 1620c-96 0 -165.666 24.667 -208.999 74s-61.333 123.666 -54 222.999h135c-0.666992 -50.667 13 -87.334 41 -110.001s73.667 -34 137 -34c72.667 0 127.167 10.833 163.5 32.5s62.5 58.834 78.5 111.501h135c-29.333 -99.333 -80 -173.666 -152 -222.999
c-70.667 -49.333 -162.334 -74 -275.001 -74z" />
    <glyph glyph-name="uniEFEF" unicode="&#xefef;" horiz-adv-x="682" 
d="M367 1811h640l-33 -159h-640z" />
    <glyph glyph-name="uniEFF0" unicode="&#xeff0;" horiz-adv-x="682" 
d="M268 1620l257 297h313l-361 -297h-209zM735 1620l257 297h313l-361 -297h-209z" />
    <glyph glyph-name="uniEFF1" unicode="&#xeff1;" horiz-adv-x="682" 
d="M107 -276c12.667 60 45.168 115.331 97.501 165.998s115.5 87.334 189.5 110.001h176c-75.333 -40 -135.833 -81.5 -181.5 -124.5s-72.5 -84.5 -80.5 -124.5c-6 -28.667 -2.16699 -53 11.5 -73s33.167 -30 58.5 -30c26 0 53.333 3.33301 82 10s55.334 15.667 80.001 27
l15 -102c-40 -15.333 -81.667 -27.666 -125 -36.999c-42 -9.33301 -78.333 -14 -109 -14c-72.667 0 -129.334 18.333 -170.001 55c-40.667 36 -55.334 81.667 -44.001 137z" />
    <glyph glyph-name="uniEFF2" unicode="&#xeff2;" horiz-adv-x="682" 
d="M339 0l-101.001 -110.999v0l60 7c54.667 0 95.667 -14.667 123 -44s36 -68 26 -116c-12 -58 -46.167 -106.333 -102.5 -145s-121.166 -58 -194.499 -58c-40 0 -79 4.66699 -117 14s-74 22.666 -108 39.999l65 96c30.667 -10 59.5 -18 86.5 -24s48.5 -9 64.5 -9
c26.667 0 51 7.66699 73 23s35.333 34.333 40 57c4 20 -0.333008 37.333 -13 52s-29.667 22 -51 22c-8 0 -21 -1.66699 -39 -5s-33.333 -7 -46 -11l-35 41l151 171h118z" />
    <glyph glyph-name="uniEFF3" unicode="&#xeff3;" horiz-adv-x="682" 
d="M587 1548c-62 0 -109.999 20.667 -143.999 62s-45 91.666 -33 150.999c12.667 59.333 44.5 109.666 95.5 150.999s107.5 62 169.5 62s110.167 -20.667 144.5 -62s45.166 -91.666 32.499 -150.999c-12 -59.333 -43.667 -109.666 -95 -150.999s-108 -62 -170 -62v0z
M611.001 1662c30 0 57.167 9.5 81.5 28.5s39.5 42.5 45.5 70.5s0.666992 51.5 -16 70.5s-40 28.5 -70 28.5s-57.333 -9.5 -82 -28.5s-40 -42.5 -46 -70.5s-0.5 -51.5 16.5 -70.5s40.5 -28.5 70.5 -28.5v0z" />
    <glyph glyph-name="uniEFF4" unicode="&#xeff4;" horiz-adv-x="682" 
d="M472 1621l-167 299h229l94 -167v0l165 167h234l-301 -299h-127h-127z" />
    <glyph glyph-name="uniEFF5" unicode="&#xeff5;" horiz-adv-x="682" 
d="M231 1635c29.333 76 70.834 136.333 124.501 181s111.834 67 174.501 67c17.333 0 40.666 -4.16699 69.999 -12.5s57 -18.5 83 -30.5c19.333 -8.66699 39.5 -16.167 60.5 -22.5s37.167 -9.5 48.5 -9.5c22.667 0 45 8.16699 67 24.5s38 36.5 48 60.5h130
c-27.333 -78 -65.166 -138.833 -113.499 -182.5s-101.833 -65.5 -160.5 -65.5c-20.667 0 -48.334 4.16699 -83.001 12.5s-66.334 18.5 -95.001 30.5c-22 8.66699 -43.5 16.167 -64.5 22.5s-35.833 9.5 -44.5 9.5c-22 0 -44 -8.16699 -66 -24.5s-38.333 -36.5 -49 -60.5h-130
z" />
    <glyph glyph-name="uniEFF6" unicode="&#xeff6;" horiz-adv-x="682" 
d="M362 1874h258l-49 -235h-258zM764 1874h258l-49 -235h-258z" />
    <glyph glyph-name="uniEFF7" unicode="&#xeff7;" horiz-adv-x="682" 
d="M796 1919l168 -299h-229l-95 167v0l-164 -167h-234l300 299h127h127z" />
    <glyph glyph-name="uniEFF8" unicode="&#xeff8;" horiz-adv-x="682" 
d="M517 1620l-238 299h316l128 -299h-206z" />
    <glyph glyph-name="uniEFF9" unicode="&#xeff9;" horiz-adv-x="682" 
d="M483 1620l257 297h313l-361 -297h-209z" />
    <glyph glyph-name="uniF001" unicode="&#xf001;" horiz-adv-x="1251" 
d="M647 883l-181.999 -882.999v0h-143h-144v0l182 883v0h-160l43 205h160v0l19 91c21.333 105.333 65 183.5 131 234.5s156.667 76.5 272 76.5l132 -3l-48 -236h-87c-38.667 0 -66.334 -7.83301 -83.001 -23.5s-29.667 -45.834 -39 -90.501l-10 -49v0h185l-43 -205h-185z
M831.001 0.000976562l225 1088v0h143h144v0l-225 -1088v0h-143h-144v0zM1147 1482h290l-54 -262h-290z" />
    <glyph glyph-name="uniF002" unicode="&#xf002;" horiz-adv-x="1251" 
d="M647 883l-181.999 -882.999v0h-143h-144v0l182 883v0h-160l43 205h160v0l19 91c21.333 105.333 65 183.5 131 234.5s156.667 76.5 272 76.5l132 -3l-48 -236h-87c-38.667 0 -66.334 -7.83301 -83.001 -23.5s-29.667 -45.834 -39 -90.501l-10 -49v0h185l-43 -205h-185z
M845.001 0.000976562l304 1470v0h143h144v0l-304 -1470v0h-143h-144v0z" />
    <glyph glyph-name="uniFB01" unicode="&#xfb01;" horiz-adv-x="1251" 
d="M647 883l-181.999 -882.999v0h-143h-144v0l182 883v0h-160l43 205h160v0l19 91c21.333 105.333 65 183.5 131 234.5s156.667 76.5 272 76.5l132 -3l-48 -236h-87c-38.667 0 -66.334 -7.83301 -83.001 -23.5s-29.667 -45.834 -39 -90.501l-10 -49v0h185l-43 -205h-185z
M831.001 0.000976562l225 1088v0h143h144v0l-225 -1088v0h-143h-144v0zM1147 1482h290l-54 -262h-290z" />
    <glyph glyph-name="glyph1" horiz-adv-x="0" 
 />
    <glyph glyph-name="glyph106" horiz-adv-x="0" 
d="M311 1506c218.667 0 388.001 -74.833 508.001 -224.5s157.667 -333.167 113 -550.5c-45.333 -217.333 -158.833 -400.833 -340.5 -550.5s-381.834 -224.5 -600.501 -224.5s-388.167 74.833 -508.5 224.5s-157.833 333.167 -112.5 550.5
c44.667 217.333 158 400.833 340 550.5s382.333 224.5 601 224.5v0zM709.001 731c34.667 167.333 10.1699 308.666 -73.4971 423.999s-203.834 173 -360.501 173s-300.834 -57.667 -432.501 -173s-214.834 -256.666 -249.501 -423.999s-10 -308.666 74 -423.999
s204 -173 360 -173s300 57.667 432 173s215.333 256.666 250 423.999v0z" />
    <glyph glyph-name="glyph107" horiz-adv-x="0" 
d="M507 620c-38 -98.667 -95.6689 -176.998 -173.002 -234.998s-163 -87 -257 -87c-105.333 0 -189.166 30.333 -251.499 91s-93.5 142 -93.5 244c0 158 50.333 289.5 151 394.5s226.667 157.5 378 157.5c98 0 172.333 -26.333 223 -79s76 -129.334 76 -230.001v0h-179v0
c-4 43.333 -19.167 76.166 -45.5 98.499s-63.5 33.5 -111.5 33.5c-80 0 -145.333 -32 -196 -96s-76 -146.333 -76 -247c0 -61.333 14.667 -108.333 44 -141s71.333 -49 126 -49c43.333 0 83.333 13.333 120 40s63.334 61.667 80.001 105v0h185z" />
    <glyph glyph-name="glyph113" horiz-adv-x="0" 
d="M311 1506c218.667 0 388.001 -74.833 508.001 -224.5s157.667 -333.167 113 -550.5c-45.333 -217.333 -158.833 -400.833 -340.5 -550.5s-381.834 -224.5 -600.501 -224.5s-388.167 74.833 -508.5 224.5s-157.833 333.167 -112.5 550.5
c44.667 217.333 158 400.833 340 550.5s382.333 224.5 601 224.5v0zM709.001 731c34.667 167.333 10.1699 308.666 -73.4971 423.999s-203.834 173 -360.501 173s-300.834 -57.667 -432.501 -173s-214.834 -256.666 -249.501 -423.999s-10 -308.666 74 -423.999
s204 -173 360 -173s300 57.667 432 173s215.333 256.666 250 423.999v0z" />
    <glyph glyph-name="glyph114" horiz-adv-x="0" 
d="M-256 313l174 837v0h89v0h232c92.667 0 163.334 -15.833 212.001 -47.5s73 -76.5 73 -134.5v-3c0 -9.33301 -0.5 -18.833 -1.5 -28.5s-2.16699 -19.167 -3.5 -28.5c-18.667 -87.333 -56.334 -149 -113.001 -185c-31.333 -20.667 -75 -35 -131 -43v0l134 -367v0h-106h-107
v0l-115 356v0h-84v0l-74 -356v0h-89h-90v0zM26 808h104c66.667 0 114.5 7.33301 143.5 22s47.5 41 55.5 79c2 9.33301 3 17 3 23c0 28 -14.5 48.333 -43.5 61s-75.167 19 -138.5 19h-82v0z" />
    <glyph glyph-name="glyph130" horiz-adv-x="682" 
d="M407 581l123 596v0h-227l27 129c56.667 -4 110.667 6.66699 162 32c51.333 26 96 64.667 134 116h168v0l-181 -873v0h-103h-103v0z" />
    <glyph glyph-name="glyph131" horiz-adv-x="682" 
d="M544 768h-366l19 80l20 81l491 500h96h96l-122 -505v0h107l-37 -156h-107v0l-45 -187h-197l45 187v0zM581 924l52 217v0v0l-203 -212l-6 -5v0h157z" />
    <glyph glyph-name="glyph133" horiz-adv-x="682" 
d="M407 581l123 596v0h-227l27 129c56.667 -4 110.667 6.66699 162 32c51.333 26 96 64.667 134 116h168v0l-181 -873v0h-103h-103v0z" />
    <glyph glyph-name="glyph134" horiz-adv-x="682" 
d="M918 1227c0 -76.667 -25.667 -143.333 -77 -200c-50 -56.667 -139.667 -119 -269 -187c-59.333 -30.667 -106.333 -62 -141 -94v0h394l-34 -165h-650v0c16.667 80 52 149 106 207s141.333 120.667 262 188c80.667 45.333 136.667 85 168 119s46.666 71 45.999 111
c0 27.333 -9.5 48.5 -28.5 63.5s-45.5 22.5 -79.5 22.5c-43.333 0 -78.166 -12.5 -104.499 -37.5s-44.833 -62.833 -55.5 -113.5v0h-185v0c21.333 98 65.5 174.667 132.5 230s148.5 83 244.5 83c84.667 0 151 -20 199 -60s72 -95.667 72 -167z" />
    <glyph glyph-name="glyph136" horiz-adv-x="682" 
d="M686 1195c2 8.66699 3 17.999 3 27.999c0 24 -8 43 -24 57s-37.667 21 -65 21c-38 0 -69.667 -10.667 -95 -32s-43.333 -52.333 -54 -93v0h-176v0c12 80 52 146.333 120 199s147.333 79 238 79c76 0 137.5 -18 184.5 -54s70.5 -83 70.5 -141
c0 -7.33301 -0.5 -15.5 -1.5 -24.5s-2.16699 -17.167 -3.5 -24.5c-12.667 -62 -51.667 -113 -117 -153l-25 -14v0l26 -14c50 -32 75 -76.667 75 -134c0 -7.33301 -0.5 -15.333 -1.5 -24s-2.16699 -17 -3.5 -25c-18.667 -90.667 -62 -161.667 -130 -213s-153 -77 -255 -77
c-106 0 -180.667 23.5 -224 70.5s-57.333 119.167 -42 216.5v0h186v0c-7.33301 -45.333 -2.83301 -79 13.5 -101s45.5 -33 87.5 -33c46 0 82.333 11 109 33s44.667 56 54 102c2 8.66699 3 16.334 3 23.001c0 27.333 -11.833 48.333 -35.5 63s-57.5 22 -101.5 22h-46l29 140
h33c50.667 0 89.667 8.33301 117 25c26.667 16 43.667 42 51 78z" />
    <glyph glyph-name="glyph137" horiz-adv-x="682" 
d="M544 768h-366l19 80l20 81l491 500h96h96l-122 -505v0h107l-37 -156h-107v0l-45 -187h-197l45 187v0zM581 924l52 217v0v0l-203 -212l-6 -5v0h157z" />
    <glyph glyph-name="glyph140" horiz-adv-x="0" 
d="M-80 0l-239 299h316l129 -299h-206z" />
    <glyph glyph-name="glyph142" horiz-adv-x="0" 
d="M-106 0l256 297h313l-360 -297h-209z" />
    <glyph glyph-name="glyph144" horiz-adv-x="0" 
d="M200 299l168 -299h-229l-95 167v0l-164 -167h-234l300 299h127h127z" />
    <glyph glyph-name="glyph146" horiz-adv-x="0" 
d="M-358 15c28.667 76 70.0049 136.333 124.005 181s112.333 67 175 67c17.333 0 40.666 -4.16699 69.999 -12.5s56.666 -18.5 81.999 -30.5c19.333 -8.66699 39.5 -16.167 60.5 -22.5s37.167 -9.5 48.5 -9.5c22.667 0 45.167 8.16699 67.5 24.5s38.166 36.5 47.499 60.5
h130c-26.667 -78 -64.167 -138.833 -112.5 -182.5s-101.833 -65.5 -160.5 -65.5c-20.667 0 -48.334 4.16699 -83.001 12.5s-66.334 18.5 -95.001 30.5c-22.667 8.66699 -44.5 16.167 -65.5 22.5s-35.833 9.5 -44.5 9.5c-22 0 -44 -8.16699 -66 -24.5s-38 -36.5 -48 -60.5
h-130z" />
    <glyph glyph-name="glyph148" horiz-adv-x="0" 
d="M-278 254h258l-49 -235h-258zM124 254h258l-49 -235h-258z" />
    <glyph glyph-name="glyph150" horiz-adv-x="0" 
d="M-14 -72c-62 0 -110.332 20.667 -144.999 62s-45.667 91.666 -33 150.999c12 59.333 43.667 109.666 95 150.999s108 62 170 62s110 -20.667 144 -62s45 -91.666 33 -150.999c-12.667 -59.333 -44.334 -109.666 -95.001 -150.999s-107 -62 -169 -62v0zM8.00098 42
c30 0 57.334 9.5 82.001 28.5s40 42.5 46 70.5c5.33301 28 -0.333984 51.5 -17.001 70.5s-40 28.5 -70 28.5s-57.333 -9.5 -82 -28.5s-39.667 -42.5 -45 -70.5c-6 -28 -0.666992 -51.5 16 -70.5s40 -28.5 70 -28.5v0z" />
    <glyph glyph-name="glyph153" horiz-adv-x="0" 
d="M5 0l-101.001 -110.999v0l60 7c54.667 0 95.667 -14.667 123 -44s36 -68 26 -116c-12 -58 -46.167 -106.333 -102.5 -145s-121.166 -58 -194.499 -58c-40 0 -79 4.66699 -117 14s-74 22.666 -108 39.999l65 96c30.667 -10 59.5 -18 86.5 -24s48.5 -9 64.5 -9
c26.667 0 51 7.66699 73 23s35.333 34.333 40 57c4 20 -0.333008 37.333 -13 52s-29.667 22 -51 22c-8 0 -21 -1.66699 -39 -5s-33.333 -7 -46 -11l-35 41l151 171h118z" />
    <glyph glyph-name="glyph179" horiz-adv-x="0" 
d="M-80 0l-239 299h316l129 -299h-206z" />
    <glyph glyph-name="glyph181" horiz-adv-x="0" 
d="M-118 0l256 297h313l-360 -297h-209z" />
    <glyph glyph-name="glyph183" horiz-adv-x="0" 
d="M193 299l168 -299h-229l-95 167v0l-164 -167h-234l300 299h127h127z" />
    <glyph glyph-name="glyph185" horiz-adv-x="0" 
d="M-358 15c28.667 76 70.0049 136.333 124.005 181s112.333 67 175 67c17.333 0 40.666 -4.16699 69.999 -12.5s56.666 -18.5 81.999 -30.5c19.333 -8.66699 39.5 -16.167 60.5 -22.5s37.167 -9.5 48.5 -9.5c22.667 0 45.167 8.16699 67.5 24.5s38.166 36.5 47.499 60.5
h130c-26.667 -78 -64.167 -138.833 -112.5 -182.5s-101.833 -65.5 -160.5 -65.5c-20.667 0 -48.334 4.16699 -83.001 12.5s-66.334 18.5 -95.001 30.5c-22.667 8.66699 -44.5 16.167 -65.5 22.5s-35.833 9.5 -44.5 9.5c-22 0 -44 -8.16699 -66 -24.5s-38 -36.5 -48 -60.5
h-130z" />
    <glyph glyph-name="glyph187" horiz-adv-x="0" 
d="M-258 254h258l-49 -235h-258zM144 254h258l-49 -235h-258z" />
    <glyph glyph-name="glyph189" horiz-adv-x="0" 
d="M-1 -72c-62 0 -110.332 20.667 -144.999 62s-45.667 91.666 -33 150.999c12 59.333 43.667 109.666 95 150.999s108 62 170 62s110 -20.667 144 -62s45 -91.666 33 -150.999c-12.667 -59.333 -44.334 -109.666 -95.001 -150.999s-107 -62 -169 -62v0zM21.001 42
c30 0 57.334 9.5 82.001 28.5s40 42.5 46 70.5c5.33301 28 -0.333984 51.5 -17.001 70.5s-40 28.5 -70 28.5s-57.333 -9.5 -82 -28.5s-39.667 -42.5 -45 -70.5c-6 -28 -0.666992 -51.5 16 -70.5s40 -28.5 70 -28.5v0z" />
    <glyph glyph-name="glyph192" horiz-adv-x="0" 
d="M39 0l-101.001 -110.999v0l60 7c54.667 0 95.667 -14.667 123 -44s36 -68 26 -116c-12 -58 -46.167 -106.333 -102.5 -145s-121.166 -58 -194.499 -58c-40 0 -79 4.66699 -117 14s-74 22.666 -108 39.999l65 96c31.333 -10 60.5 -18 87.5 -24s48.167 -9 63.5 -9
c26.667 0 51 7.66699 73 23s35.333 34.333 40 57c4 20 -0.333008 37.333 -13 52s-29.667 22 -51 22c-8 0 -21 -1.66699 -39 -5s-33.333 -7 -46 -11l-35 41l151 171h118z" />
    <glyph glyph-name="glyph219" horiz-adv-x="0" 
d="M-281 191h640l-33 -159h-640z" />
    <glyph glyph-name="glyph221" horiz-adv-x="0" 
d="M-281 191h640l-33 -159h-640z" />
    <glyph glyph-name="glyph223" horiz-adv-x="0" 
d="M-21 0c-96 0 -165.834 24.667 -209.501 74s-61.5 123.666 -53.5 222.999h135c-1.33301 -50.667 12 -87.334 40 -110.001s73.667 -34 137 -34c72.667 0 127.334 10.833 164.001 32.5s63 58.834 79 111.501h135c-30 -99.333 -80.5 -173.666 -151.5 -222.999
s-162.833 -74 -275.5 -74z" />
    <glyph glyph-name="glyph225" horiz-adv-x="0" 
d="M-21 0c-96 0 -165.834 24.667 -209.501 74s-61.5 123.666 -53.5 222.999h135c-1.33301 -50.667 12 -87.334 40 -110.001s73.667 -34 137 -34c72.667 0 127.334 10.833 164.001 32.5s63 58.834 79 111.501h135c-30 -99.333 -80.5 -173.666 -151.5 -222.999
s-162.833 -74 -275.5 -74z" />
    <glyph glyph-name="glyph227" horiz-adv-x="0" 
d="M-301 -276c12.667 60 45.168 115.331 97.501 165.998s115.5 87.334 189.5 110.001h176c-75.333 -40 -135.833 -81.5 -181.5 -124.5s-72.5 -84.5 -80.5 -124.5c-6 -28.667 -2.16699 -53 11.5 -73s33.167 -30 58.5 -30c26 0 53.333 3.33301 82 10s55.334 15.667 80.001 27
l15 -102c-40 -15.333 -81.667 -27.666 -125 -36.999c-42 -9.33301 -78.333 -14 -109 -14c-72.667 0 -129.334 18.333 -170.001 55c-40.667 36 -55.334 81.667 -44.001 137z" />
    <glyph glyph-name="glyph229" horiz-adv-x="0" 
d="M-301 -276c12.667 60 45.168 115.331 97.501 165.998s115.5 87.334 189.5 110.001h176c-75.333 -40 -135.833 -81.5 -181.5 -124.5s-72.5 -84.5 -80.5 -124.5c-6 -28.667 -2.16699 -53 11.5 -73s33.167 -30 58.5 -30c26 0 53.333 3.33301 82 10s55.334 15.667 80.001 27
l15 -102c-40 -15.333 -81.667 -27.666 -125 -36.999c-42 -9.33301 -78.333 -14 -109 -14c-72.667 0 -129.334 18.333 -170.001 55c-40.667 36 -55.334 81.667 -44.001 137z" />
    <glyph glyph-name="glyph233" horiz-adv-x="0" 
d="M-134 1l-167 299h229l94 -167v0l165 167h234l-301 -299h-127h-127z" />
    <glyph glyph-name="glyph235" horiz-adv-x="0" 
d="M-127 1l-167 299h229l94 -167v0l165 167h234l-301 -299h-127h-127z" />
    <glyph glyph-name="glyph238" horiz-adv-x="0" 
d="M-325 -29c-110 0 -196.167 35.166 -258.5 105.499s-93.5 167.833 -93.5 292.5c0 30 2.16699 63.833 6.5 101.5s10.166 74.834 17.499 111.501c32 153.333 100.333 280.833 205 382.5s220.334 152.5 347.001 152.5c138.667 0 236 -52.333 292 -157l5 -9v0l108 519v0h143
h144v0l-304 -1470v0h-143h-144v0l25 123v0c-105.333 -101.333 -222 -152 -350 -152zM-52 868.999c-73.333 0 -138.666 -30.166 -195.999 -90.499s-96.333 -139.833 -117 -238.5c-4.66699 -22 -8.16699 -43.667 -10.5 -65s-3.5 -40.333 -3.5 -57
c0 -67.333 16.5 -119.333 49.5 -156s79.5 -55 139.5 -55c74 0 139.667 29.167 197 87.5s95.666 135.166 114.999 230.499c22.667 110 19 194.833 -11 254.5s-84.333 89.5 -163 89.5z" />
    <glyph glyph-name="glyph239" horiz-adv-x="0" 
d="M124 446l27.001 133h131h130l-42 -203c-22 -106 -60.833 -189.667 -116.5 -251s-130.5 -103 -224.5 -125v0l25 122v0c53.333 16 92.333 42.667 117 80c17.333 25.333 32.666 62.333 45.999 111v0h-121z" />
    <glyph glyph-name="glyph245" horiz-adv-x="0" 
d="M-77 255h258l-49 -236h-258z" />
    <glyph glyph-name="glyph247" horiz-adv-x="0" 
d="M-77 255h258l-49 -236h-258z" />
    <glyph glyph-name="glyph255" horiz-adv-x="0" 
d="M100 446l27.001 133h131h130l-42 -203c-22 -106 -60.833 -189.667 -116.5 -251s-130.5 -103 -224.5 -125v0l25 122v0c53.333 16 92.333 42.667 117 80c17.333 25.333 32.666 62.333 45.999 111v0h-121z" />
    <glyph glyph-name="glyph257" horiz-adv-x="0" 
d="M156 133l-27.001 -133h-131h-130l42 203c21.333 106 60 189.667 116 251s131 103 225 125v0l-25 -122v0c-53.333 -16 -92.333 -42.667 -117 -80c-17.333 -25.333 -32.666 -62.333 -45.999 -111v0h121z" />
    <glyph glyph-name="glyph282" horiz-adv-x="0" 
d="M-404 0l256 297h313l-360 -297h-209zM63 0l256 297h313l-360 -297h-209z" />
    <glyph glyph-name="glyph284" horiz-adv-x="0" 
d="M-381 0l256 297h313l-360 -297h-209zM86 0l256 297h313l-360 -297h-209z" />
    <glyph glyph-name="glyph300" horiz-adv-x="0" 
d="M116 397l31.002 149h142h142l-41 -197c-20.667 -100.667 -60.834 -181 -120.501 -241s-140.167 -101.667 -241.5 -125v0l27 133v0c57.333 18 98.666 42 123.999 72c14 16.667 25.333 36.667 34 60v0h-128z" />
    <glyph glyph-name="glyph302" horiz-adv-x="0" 
d="M101 225l27.001 131.998h131h130l-36 -178c-19.333 -91.333 -56 -164.166 -110 -218.499s-128 -92.166 -222 -113.499v0l25 122v0c53.333 16 91.333 38 114 66c13.333 15.333 23.666 34.333 30.999 57v0h-117z" />
    <glyph glyph-name="glyph350" horiz-adv-x="0" 
d="M15 632l137 660v0h-239v0l19 89l21 89v0h702v0l-18 -89l-16 -89v0h-238v0l-137 -660v0h-115h-116v0z" />
    <glyph glyph-name="glyph351" horiz-adv-x="0" 
d="M-163 632h-108h-108v0l174 838v0h156h157v0l84 -519v0v0l313 519v0h156h157v0l-174 -838v0h-110h-111v0l129 619v0l-336 -619h-86h-86l-85 586v0z" />
  </font>
</defs>
</svg>
